Hasta El Último Hombre (2016) Full 1080p Latino

3.349 vistas
1 estrella2 estrellas3 estrellas4 estrellas5 estrellas (1 votos, promedio: 5,00 de 5)
Cargando…

Información de Hasta El Último Hombre (2016) Full 1080p Latino

Datos de la película

  • Calidad: Full 1080p
  • Audio: Español Latino AC3 5.1 BLURAY - Ingles AC3 5.1 BLURAY
  • Subtitulos: Español Latino PGS - Ingles PGS
  • Resolución: 1920x1080p
  • Formato: MKV
  • Codec: H.265
  • Encoder: SebastianHDx
  • Mediainfo: Ver Ver
  • Hasta El Último Hombre (2016) 1080p BluRay x265 HEVC Dual Latino.mkv
    Format                      : Matroska
    Format version              : Version 4 / Version 2
    File size                   : 3.43 GiB
    Duration                    : 2h 19mn
    Overall bit rate            : 3 523 Kbps
    Encoded date                : UTC 2017-02-12 15:21:53
    Writing application         : mkvmerge v8.6.1 ('Flying') 64bit
    Writing library             : libebml v1.3.3 + libmatroska v1.4.4
    DURATION                    : 02:12:11.227000000
    NUMBER_OF_FRAMES            : 2604
    NUMBER_OF_BYTES             : 27444621
    _STATISTICS_WRITING_APP     : mkvmerge v8.6.1 ('Flying') 64bit
    _STATISTICS_WRITING_DATE_UT : 2017-02-12 15:21:53
    _STATISTICS_TAGS            : BPS DURATION NUMBER_OF_FRAMES NUMBER_OF_BYTES

    Video
    ID                          : 1
    Format                      : HEVC
    Format/Info                 : High Efficiency Video Coding
    Format profile              : [email protected]@Main
    Codec ID                    : V_MPEGH/ISO/HEVC
    Duration                    : 2h 19mn
    Bit rate                    : 2 173 Kbps
    Width                       : 1 920 pixels
    Height                      : 1 080 pixels
    Display aspect ratio        : 16:9
    Frame rate mode             : Constant
    Frame rate                  : 23.976 fps
    Color space                 : YUV
    Chroma subsampling          : 4:2:0
    Bit depth                   : 8 bits
    Bits/(Pixel*Frame)          : 0.044
    Stream size                 : 2.11 GiB (62%)
    Writing library             : x265 1.9:[Windows][GCC 4.9.0][64 bit] 8bit
    Encoding settings           : wpp / ctu=64 / min-cu-size=8 / max-tu-size=32 / tu-intra-depth=1 / tu-inter-depth=1 / me=3 / subme=3 / merange=57 / rect / no-amp / max-merge=3 / temporal-mvp / no-early-skip / rdpenalty=0 / no-tskip / no-tskip-fast / strong-intra-smoothing / no-lossless / no-cu-lossless / no-constrained-intra / no-fast-intra / open-gop / no-temporal-layers / interlace=0 / keyint=240 / min-keyint=24 / scenecut=40 / rc-lookahead=25 / lookahead-slices=4 / bframes=4 / bframe-bias=0 / b-adapt=2 / ref=4 / limit-refs=3 / limit-modes / weightp / no-weightb / aq-mode=1 / qg-size=32 / aq-strength=1.00 / cbqpoffs=0 / crqpoffs=0 / rd=4 / psy-rd=2.00 / rdoq-level=2 / psy-rdoq=1.00 / signhide / deblock / sao / no-sao-non-deblock / b-pyramid / cutree / no-intra-refresh / rc=crf / crf=20.0 / qcomp=0.60 / qpmin=0 / qpmax=51 / qpstep=4 / ipratio=1.40 / pbratio=1.30
    Default                     : Yes
    Forced                      : No
    Color range                 : Limited
    Color primaries             : BT.709
    Transfer characteristics    : BT.709
    Matrix coefficients         : BT.709
    DURATION                    : 02:19:19.351000000
    NUMBER_OF_FRAMES            : 200424
    NUMBER_OF_BYTES             : 2314426234
    _STATISTICS_WRITING_APP     : mkvmerge v8.6.1 ('Flying') 64bit
    _STATISTICS_WRITING_DATE_UT : 2017-02-12 15:21:53
    _STATISTICS_TAGS            : BPS DURATION NUMBER_OF_FRAMES NUMBER_OF_BYTES

    Audio #1
    ID                          : 2
    Format                      : AC-3
    Format/Info                 : Audio Coding 3
    Mode extension              : CM (complete main)
    Format settings, Endianness : Big
    Codec ID                    : A_AC3
    Duration                    : 2h 19mn
    Bit rate mode               : Constant
    Bit rate                    : 640 Kbps
    Channel(s)                  : 6 channels
    Channel positions           : Front: L C R, Side: L R, LFE
    Sampling rate               : 48.0 KHz
    Compression mode            : Lossy
    Delay relative to video     : -83ms
    Stream size                 : 638 MiB (18%)
    Title                       : Español Latino AC3 5.1 [640 Kbps]
    Language                    : Spanish
    Default                     : Yes
    Forced                      : No

    Audio #2
    ID                          : 3
    Format                      : AC-3
    Format/Info                 : Audio Coding 3
    Mode extension              : CM (complete main)
    Format settings, Endianness : Big
    Codec ID                    : A_AC3
    Duration                    : 2h 19mn
    Bit rate mode               : Constant
    Bit rate                    : 640 Kbps
    Channel(s)                  : 6 channels
    Channel positions           : Front: L C R, Side: L R, LFE
    Sampling rate               : 48.0 KHz
    Compression mode            : Lossy
    Delay relative to video     : -83ms
    Stream size                 : 638 MiB (18%)
    Title                       : Inglés AC3 5.1 [640 Kbps]
    Language                    : English
    Default                     : No
    Forced                      : No

    Text #1
    ID                          : 4
    Format                      : UTF-8
    Codec ID                    : S_TEXT/UTF8
    Codec ID/Info               : UTF-8 Plain Text
    Title                       : Subtítulos Español Latino - Forzados [SRT]
    Language                    : Spanish
    Default                     : No
    Forced                      : Yes

    Text #2
    ID                          : 5
    Format                      : PGS
    Codec ID                    : S_HDMV/PGS
    Codec ID/Info               : Picture based subtitle format used on BDs/HD-DVDs
    Title                       : Subtítulos Español Latino [PGS]
    Language                    : Spanish
    Default                     : No
    Forced                      : No

    Menu
    00:00:00.000                : :Chapter 2
    00:09:18.140                : :Chapter 1
    00:09:18.849                : :Chapter 2
    00:18:42.079                : :Chapter 4
    00:26:33.717                : :Chapter 3
    00:26:34.592                : :Chapter 4
    00:33:00.645                : :Chapter 5
    00:40:03.317                : :Chapter 6
    00:57:00.917                : :Chapter 7
    00:57:01.626                : :Chapter 8
    01:04:21.732                : :Chapter 9
    01:17:50.290                : :Chapter 10
    01:23:58.783                : :Chapter 11
    01:31:21.809                : :Chapter 12
    01:39:02.895                : :Chapter 13
    01:46:07.652                : :Chapter 14
    01:59:48.389                : :Chapter 15
    02:07:13.375                : :Chapter 16

  • Peso: 3.4 GB

Sinopsis

Descargar Hasta el último hombre 1080p Segunda Guerra Mundial. El sueño de Desmond T. Doss es ser médico, pero evitar que sus pocos estudios. Él decidió unirse al ejército, aun a sabiendas de que sus fuertes creencias impiden que hace pivotar un arma. ¿Cómo puede este soldado luchando por su país sin defensa? La intención es formar Doss médica y por lo tanto, mientras que todos toman su propia vida, que tratará de salvar a todas las personas como sea posible.

Ficha técnica

Imágenes, Capturas de la película

Video trailer de la película

Enlaces de descarga

Descargar
Descargar Hasta El Último Hombre (2016) Full 1080p Latino

dpeliculas

Aportes de DPeliculasHDmega la pass es:dpeliculashdmega.org Aportes de CinemaniaHD la pass es:cinemaniahdd.com
Guardado en : 1080p x265 HEVC , Drama , Guerra , Historia

PelícuDelas relacionadas

Comentarios 13
  • Gaby - 05 abril, 2017

    Gracias por el aporte. Lástima que se abren una cantidad inimaginable de ventanas emergentes y cuando al final de la odisea se llega al “mega” este no tiene nada para bajar. LAMENTABLE !!

    • dpelis

      Administrador
      - 05 abril, 2017

      es lamentable que no logren ver el cuadro que dice pasos para descargar de mega, cuando esta abajo de los link , antes descagar hay que revisar el post para luego n haya malas interpretaciones, https://dpeliculashdmega.org/como-descargar/

  • leonidas - 13 marzo, 2017

    No se que tiene el formato h265 ,pero se ven espectaculares, gracias

  • leonidas - 13 marzo, 2017

    Buenisima esta peliculas, gracias por el aporte en h265, gracias

  • slash - 05 marzo, 2017

    Gracias.

  • rpeuibas - 15 febrero, 2017

    rpeuibas

  • Rommell - 13 febrero, 2017

    Disculpe mi ignorancia pero cual es la diferencia de este post que acaban de subir con esta:
    https://dpeliculashdmega.org/hasta-el-ultimo-hombre-2016-1080p-latino/

    • dpelis

      Administrador
      - 14 febrero, 2017

      hola, es el codec, una es 264 y otra 265

      • Rommell - 14 febrero, 2017

        Gracias por responder, tambien he notado que el peso varia, en todo caso cual seria el de mejor calidad entre los dos?

  • Leonardo - 12 febrero, 2017

    Hola buenas tardes están fuera los link de mega =(

    • dpelis

      Administrador
      - 12 febrero, 2017

      ya disponible

  • gaston - 12 febrero, 2017

    no hay nada en los en los enllos enlases???¡

    • SebastianHDx

      Autor
      - 12 febrero, 2017

      Ya Esta Solucionado