Advertise here

Harry Potter y las reliquias de la muerte – Parte I (2010) Full 1080p Latino

335 vistas
1 estrella2 estrellas3 estrellas4 estrellas5 estrellas (Ninguna valoración todavía)
Cargando…

Información de Harry Potter y las reliquias de la muerte – Parte I (2010) Full 1080p Latino

Datos de la película

  • Calidad: Full 1080p
  • Audio: Español Latino AC3 5.1 BLURAY - Ingles DTS 5.1 BLURAY
  • Subtitulos: Español Latino PGS
  • Resolución: 1920X1080
  • Formato: MKV
  • Codec: H.264
  • Encoder: Dpelis
  • Mediainfo: Clic para Mostrar Datos Ver
  • Format                                   : Matroska
    Format version                           : Version 4 / Version 2
    File size                                : 5.65 GiB
    Duration                                 : 2 h 26 min
    Overall bit rate                         : 5 539 kb/s
    Movie name                               : dpeliculashdmega.org
    Encoded date                             : UTC 2017-10-31 05:21:29 / UTC 2017-10-29T05:14:54Z
    Writing application                      : mkvmerge v10.0.0 ('To Drown In You') 64bit
    Writing library                          : libebml v1.3.4 + libmatroska v1.4.5 / Lavf57.7.2

    Video
    ID                                       : 1
    Format                                   : AVC
    Format/Info                              : Advanced Video Codec
    Format profile                           : [email protected]
    Format settings                          : CABAC / 4 Ref Frames
    Format settings, CABAC                   : Yes
    Format settings, RefFrames               : 4 frames
    Codec ID                                 : V_MPEG4/ISO/AVC
    Duration                                 : 2 h 26 min
    Bit rate                                 : 3 280 kb/s
    Width                                    : 1 920 pixels
    Height                                   : 1 080 pixels
    Display aspect ratio                     : 16:9
    Frame rate mode                          : Constant
    Frame rate                               : 23.976 (24000/1001) FPS
    Color space                              : YUV
    Chroma subsampling                       : 4:2:0
    Bit depth                                : 8 bits
    Scan type                                : Progressive
    Bits/(Pixel*Frame)                       : 0.066
    Stream size                              : 3.35 GiB (59%)
    Title                                    : Harry Potter y las reliquias de la muerte - Parte I (2010) Full 1080p Latino
    Writing library                          : x264 core 148 r2708 86b7198
    Encoding settings                        : cabac=1 / ref=4 / deblock=1:0:0 / analyse=0x3:0x133 / me=esa / subme=10 / psy=1 / psy_rd=1.00:0.00 / mixed_ref=1 / me_range=24 / chroma_me=1 / trellis=2 / 8x8dct=1 / cqm=0 / deadzone=21,11 / fast_pskip=1 / chroma_qp_offset=-2 / threads=34 / lookahead_threads=5 / sliced_threads=0 / nr=0 / decimate=1 / interlaced=0 / bluray_compat=0 / constrained_intra=0 / bframes=8 / b_pyramid=2 / b_adapt=2 / b_bias=0 / direct=3 / weightb=1 / open_gop=0 / weightp=2 / keyint=240 / keyint_min=24 / scenecut=40 / intra_refresh=0 / rc_lookahead=60 / rc=crf / mbtree=1 / crf=20.0 / qcomp=0.60 / qpmin=0 / qpmax=69 / qpstep=4 / vbv_maxrate=62500 / vbv_bufsize=78125 / crf_max=0.0 / nal_hrd=none / filler=0 / ip_ratio=1.40 / aq=1:1.00
    Language                                 : English
    Default                                  : Yes
    Forced                                   : No
    Color range                              : Limited
    Color primaries                          : BT.709
    Transfer characteristics                 : BT.709
    Matrix coefficients                      : BT.709
    Statistics Tags Issue                    : mkvmerge v10.0.0 ('To Drown In You') 64bit 2017-10-31 05:21:29 / mkvmerge v10.0.0 ('To Drown In You') 64bit 2017-10-31 05:21:29 / UTC 2017-10-29T05:14:54Z
    FromStats_BitRate                        : 3378045
    FromStats_Duration                       : 02:26:05.257000000
    FromStats_FrameCount                     : 210156
    FromStats_StreamSize                     : 3701179177

    Audio #1
    ID                                       : 2
    Format                                   : AC-3
    Format/Info                              : Audio Coding 3
    Format settings, Endianness              : Big
    Codec ID                                 : A_AC3
    Duration                                 : 2 h 26 min
    Bit rate mode                            : Constant
    Bit rate                                 : 640 kb/s
    Channel(s)                               : 6 channels
    Channel positions                        : Front: L C R, Side: L R, LFE
    Sampling rate                            : 48.0 kHz
    Frame rate                               : 31.250 FPS (1536 SPF)
    Bit depth                                : 16 bits
    Compression mode                         : Lossy
    Stream size                              : 669 MiB (12%)
    Title                                    : Latino-AC3
    Language                                 : Spanish
    Service kind                             : Complete Main
    Default                                  : Yes
    Forced                                   : No
    Statistics Tags Issue                    : mkvmerge v10.0.0 ('To Drown In You') 64bit 2017-10-31 05:21:29 / mkvmerge v10.0.0 ('To Drown In You') 64bit 2017-10-31 05:21:29 / UTC 2017-10-29T05:14:54Z
    FromStats_BitRate                        : 640000
    FromStats_Duration                       : 02:26:05.248000000
    FromStats_FrameCount                     : 273914
    FromStats_StreamSize                     : 701219840

    Audio #2
    ID                                       : 3
    Format                                   : DTS
    Format/Info                              : Digital Theater Systems
    Mode                                     : 16
    Format settings, Endianness              : Big
    Codec ID                                 : A_DTS
    Duration                                 : 2 h 26 min
    Bit rate mode                            : Constant
    Bit rate                                 : 1 509 kb/s
    Channel(s)                               : 6 channels
    Channel positions                        : Front: L C R, Side: L R, LFE
    Sampling rate                            : 48.0 kHz
    Frame rate                               : 93.750 FPS (512 SPF)
    Bit depth                                : 24 bits
    Compression mode                         : Lossy
    Stream size                              : 1.54 GiB (27%)
    Title                                    : Ingles-DTS
    Language                                 : English
    Default                                  : No
    Forced                                   : No
    Statistics Tags Issue                    : mkvmerge v10.0.0 ('To Drown In You') 64bit 2017-10-31 05:21:29 / mkvmerge v10.0.0 ('To Drown In You') 64bit 2017-10-31 05:21:29 / UTC 2017-10-29T05:14:54Z
    FromStats_BitRate                        : 1508999
    FromStats_Duration                       : 02:26:05.259000000
    FromStats_FrameCount                     : 821743
    FromStats_StreamSize                     : 1653346916

    Text #1
    ID                                       : 4
    Format                                   : UTF-8
    Codec ID                                 : S_TEXT/UTF8
    Codec ID/Info                            : UTF-8 Plain Text
    Title                                    : SRT-Forzados
    Language                                 : Spanish
    Default                                  : Yes
    Forced                                   : No
    Statistics Tags Issue                    : mkvmerge v10.0.0 ('To Drown In You') 64bit 2017-10-31 05:21:29 / mkvmerge v10.0.0 ('To Drown In You') 64bit 2017-10-31 05:21:29 / UTC 2017-10-29T05:14:54Z
    FromStats_BitRate                        : 0
    FromStats_Duration                       : 00:50:50.880000000
    FromStats_FrameCount                     : 4
    FromStats_StreamSize                     : 133

    Text #2
    ID                                       : 5
    Format                                   : UTF-8
    Codec ID                                 : S_TEXT/UTF8
    Codec ID/Info                            : UTF-8 Plain Text
    Title                                    : SRT-Completos
    Language                                 : Spanish
    Default                                  : No
    Forced                                   : No
    Statistics Tags Issue                    : mkvmerge v10.0.0 ('To Drown In You') 64bit 2017-10-31 05:21:29 / mkvmerge v10.0.0 ('To Drown In You') 64bit 2017-10-31 05:21:29 / UTC 2017-10-29T05:14:54Z
    FromStats_BitRate                        : 40
    FromStats_Duration                       : 02:17:27.905000000
    FromStats_FrameCount                     : 1245
    FromStats_StreamSize                     : 41455

    Text #3
    ID                                       : 6
    Format                                   : PGS
    Muxing mode                              : zlib
    Codec ID                                 : S_HDMV/PGS
    Codec ID/Info                            : Picture based subtitle format used on BDs/HD-DVDs
    Title                                    : PGS
    Language                                 : Spanish
    Default                                  : No
    Forced                                   : No
    Statistics Tags Issue                    : mkvmerge v10.0.0 ('To Drown In You') 64bit 2017-10-31 05:21:29 / mkvmerge v10.0.0 ('To Drown In You') 64bit 2017-10-31 05:21:29 / UTC 2017-10-29T05:14:54Z
    FromStats_BitRate                        : 9306
    FromStats_Duration                       : 02:26:03.129000000
    FromStats_FrameCount                     : 2502
    FromStats_StreamSize                     : 10193804

    Menu
    00:00:00.000                             : :Dark Times
    00:04:18.508                             : :Dark Lord Ascending
    00:09:46.628                             : :The Seven Potters
    00:15:16.207                             : :Aerial Ambush
    00:19:13.569                             : :Fallen Warrior
    00:26:04.229                             : :Dumbledore's Will
    00:31:37.771                             : :The Wedding
    00:35:43.308                             : :A Place to Hide
    00:41:37.537                             : :Kreacher's Tale
    00:45:45.618                             : :Theft of a Thief
    00:50:14.094                             : :Ministry Interior
    00:55:02.716                             : :Secret Files
    00:58:31.174                             : :Lifting the Locket
    01:03:41.359                             : :Forest Fugitives
    01:10:02.281                             : :Getting Too Close
    01:14:31.008                             : :Broken Ranks
    01:18:48.974                             : :Invitation to Dance
    01:22:17.724                             : :Clues Revealed
    01:24:55.173                             : :Godric's Hollow
    01:28:03.278                             : :Bathilda's Secret
    01:32:34.299                             : :The Silver Doe
    01:37:40.313                             : :Sword of Gryffindor
    01:42:37.652                             : :Lighting the Way Back
    01:47:54.218                             : :The Three Brothers
    01:53:48.196                             : :The Deathly Hallows
    01:57:31.044                             : :Snatchers Strike
    02:01:28.072                             : :Malfoy Manor
    02:05:42.243                             : :Dobby has No Master
    02:09:42.817                             : :Sleeping Friend
    02:13:16.113                             : :Grave Robber
    02:14:47.162                             : :End Credits

  • Peso: 5.65 GiB

Sinopsis

Primera parte de la adaptación al cine del último libro de la saga Harry Potter, “Harry Potter y las Reliquias de la Muerte”. La historia continúa desde el punto en el que terminó “El príncipe mestizo”: Una tarea casi imposible cae sobre los hombros de Harry: deberá encontrar y destruir los horrocruxes restantes para dar fin al reinado de Lord Voldemort. En el episodio final de la saga, el hechicero de 17 años parte junto con sus amigos Hermione Granger y Ron Weasley en un peligroso viaje por Inglaterra para encontrar los objetos que contienen los fragmentos del alma del Señor Tenebroso, los cuales garantizan su longevidad. Pero el camino no será fácil pues el lado oscuro adquiere más poder con cada minuto que pasa y las lealtades serán puestas a prueba. Harry deberá usar todos los conocimientos que gracias a Dumbledore ha adquirido sobre su enemigo para poder encontrar la forma de sobrevivir a esta última aventura

Ficha técnica

  • Titulo original: Harry Potter and the Deathly Hallows: Part 1
  • Fecha de lanzamiento: 17-10-2010 (United Kingdom, United States of America)
  • Director: David Yates
  • Género: Aventura, Familia, Fantasía
  • Puntuación: 0.0 0 votos
  • Duración:
    2 h 26 min

Video trailer de la película

Enlaces de descarga

Descargar Harry Potter y las reliquias de la muerte – Parte I (2010) Full 1080p Latino
Descargar

dpeliculas

Aportes de DPeliculasHDmega la pass es:dpeliculashdmega.org Aportes de CinemaniaHD la pass es:cinemaniahdd.com
Guardado en : Aventura , Familia , Fantasía

Películas relacionadas

  • Toy Story 3 (2010) Full 1080p Latino

    2010
    Toy Story 3 (2010) Full 1080p Latino

    0.0 1 h 43 min 2010

    Sabiendo que su dueño Andy, que ya no es un niño, se prepara para ir a la universidad, el vaquero Woody,...

    Director: Mark Sanford

    Género: Animación

    Actores: Whoopi Goldberg

  • Toy Story (1995) Full 1080p Latino

    1995
    Toy Story (1995) Full 1080p Latino

    0.0 1 h 21 min 1995

    Los juguetes de Andy, un niño de 6 años, temen que haya llegado su hora y que un nuevo regalo de cumpleaños...

    Director: Roman Figun

    Género: Animación

    Actores: Wallace Shawn

  • Avatar (2009) EXTENDED Full 1080p Latino

    2009
    Avatar (2009) EXTENDED Full 1080p Latino

    0.0 2 h 58 min 2009

    Jake Sully, un ex-marine confinado a una silla de ruedas, es reclutado para viajar al planeta Pandora,...

    Director: James Cameron

    Género: Acción

    Actores: Zoe Saldana

  • Aladdín (1992) Full 1080p Latino

    1992
    Aladdín (1992) Full 1080p Latino

    0.0 1 h 30 min 1992

    Basada en el famoso cuento "Aladino y la lámpara maravillosa", la trama se sitúa en el exótico paisaje...

    Director: Tom Shannon

    Género: Animación

    Actores: Vera Lockwood

Comentarios 0