Advertise here

Harry Potter y la orden del Fénix (2007) Full 1080p Latino

333 vistas
1 estrella2 estrellas3 estrellas4 estrellas5 estrellas (Ninguna valoración todavía)
Cargando…

Información de Harry Potter y la orden del Fénix (2007) Full 1080p Latino

Datos de la película

  • Calidad: Full 1080p
  • Audio: Español Latino AC3 5.1 BLURAY - Ingles AC3 5.1 BLURAY
  • Subtitulos: Español Latino PGS
  • Resolución: 1920X1080
  • Formato: MKV
  • Codec: H.264
  • Encoder: Dpelis
  • Mediainfo: Clic para Mostrar Datos Ver
  • Format                                   : Matroska
    Format version                           : Version 4 / Version 2
    File size                                : 5.40 GiB
    Duration                                 : 2 h 18 min
    Overall bit rate                         : 5 598 kb/s
    Movie name                               : dpeliculashdmega.org
    Encoded date                             : UTC 2017-10-31 04:39:21 / UTC 2017-10-28T04:03:40Z
    Writing application                      : mkvmerge v10.0.0 ('To Drown In You') 64bit
    Writing library                          : libebml v1.3.4 + libmatroska v1.4.5 / Lavf57.7.2

    Video
    ID                                       : 1
    Format                                   : AVC
    Format/Info                              : Advanced Video Codec
    Format profile                           : [email protected]
    Format settings                          : CABAC / 4 Ref Frames
    Format settings, CABAC                   : Yes
    Format settings, RefFrames               : 4 frames
    Codec ID                                 : V_MPEG4/ISO/AVC
    Duration                                 : 2 h 18 min
    Bit rate                                 : 4 206 kb/s
    Width                                    : 1 920 pixels
    Height                                   : 1 080 pixels
    Display aspect ratio                     : 16:9
    Frame rate mode                          : Constant
    Frame rate                               : 23.976 (24000/1001) FPS
    Color space                              : YUV
    Chroma subsampling                       : 4:2:0
    Bit depth                                : 8 bits
    Scan type                                : Progressive
    Bits/(Pixel*Frame)                       : 0.085
    Stream size                              : 4.06 GiB (75%)
    Title                                    : Harry Potter y la orden del Fénix (2007) Full 1080p Latino
    Writing library                          : x264 core 148 r2708 86b7198
    Encoding settings                        : cabac=1 / ref=4 / deblock=1:0:0 / analyse=0x3:0x133 / me=esa / subme=10 / psy=1 / psy_rd=1.00:0.00 / mixed_ref=1 / me_range=24 / chroma_me=1 / trellis=2 / 8x8dct=1 / cqm=0 / deadzone=21,11 / fast_pskip=1 / chroma_qp_offset=-2 / threads=34 / lookahead_threads=5 / sliced_threads=0 / nr=0 / decimate=1 / interlaced=0 / bluray_compat=0 / constrained_intra=0 / bframes=8 / b_pyramid=2 / b_adapt=2 / b_bias=0 / direct=3 / weightb=1 / open_gop=0 / weightp=2 / keyint=240 / keyint_min=24 / scenecut=40 / intra_refresh=0 / rc_lookahead=60 / rc=crf / mbtree=1 / crf=20.0 / qcomp=0.60 / qpmin=0 / qpmax=69 / qpstep=4 / vbv_maxrate=62500 / vbv_bufsize=78125 / crf_max=0.0 / nal_hrd=none / filler=0 / ip_ratio=1.40 / aq=1:1.00
    Language                                 : English
    Default                                  : Yes
    Forced                                   : No
    Color range                              : Limited
    Color primaries                          : BT.709
    Transfer characteristics                 : BT.709
    Matrix coefficients                      : BT.709
    Statistics Tags Issue                    : mkvmerge v10.0.0 ('To Drown In You') 64bit 2017-10-31 04:39:21 / mkvmerge v10.0.0 ('To Drown In You') 64bit 2017-10-31 04:39:21 / UTC 2017-10-28T04:03:40Z
    FromStats_BitRate                        : 4304003
    FromStats_Duration                       : 02:18:14.411000000
    FromStats_FrameCount                     : 198867
    FromStats_StreamSize                     : 4462396514

    Audio #1
    ID                                       : 2
    Format                                   : AC-3
    Format/Info                              : Audio Coding 3
    Format settings, Endianness              : Big
    Codec ID                                 : A_AC3
    Duration                                 : 2 h 18 min
    Bit rate mode                            : Constant
    Bit rate                                 : 640 kb/s
    Channel(s)                               : 6 channels
    Channel positions                        : Front: L C R, Side: L R, LFE
    Sampling rate                            : 48.0 kHz
    Frame rate                               : 31.250 FPS (1536 SPF)
    Bit depth                                : 16 bits
    Compression mode                         : Lossy
    Stream size                              : 633 MiB (11%)
    Title                                    : Latino-AC3
    Language                                 : Spanish
    Service kind                             : Complete Main
    Default                                  : Yes
    Forced                                   : No
    Statistics Tags Issue                    : mkvmerge v10.0.0 ('To Drown In You') 64bit 2017-10-31 04:39:21 / mkvmerge v10.0.0 ('To Drown In You') 64bit 2017-10-31 04:39:21 / UTC 2017-10-28T04:03:40Z
    FromStats_BitRate                        : 640000
    FromStats_Duration                       : 02:18:14.464000000
    FromStats_FrameCount                     : 259202
    FromStats_StreamSize                     : 663557120

    Audio #2
    ID                                       : 3
    Format                                   : AC-3
    Format/Info                              : Audio Coding 3
    Format settings, Endianness              : Big
    Codec ID                                 : A_AC3
    Duration                                 : 2 h 18 min
    Bit rate mode                            : Constant
    Bit rate                                 : 640 kb/s
    Channel(s)                               : 6 channels
    Channel positions                        : Front: L C R, Side: L R, LFE
    Sampling rate                            : 48.0 kHz
    Frame rate                               : 31.250 FPS (1536 SPF)
    Bit depth                                : 16 bits
    Compression mode                         : Lossy
    Stream size                              : 633 MiB (11%)
    Title                                    : Ingles-AC3
    Language                                 : English
    Service kind                             : Complete Main
    Default                                  : No
    Forced                                   : No
    Statistics Tags Issue                    : mkvmerge v10.0.0 ('To Drown In You') 64bit 2017-10-31 04:39:21 / mkvmerge v10.0.0 ('To Drown In You') 64bit 2017-10-31 04:39:21 / UTC 2017-10-28T04:03:40Z
    FromStats_BitRate                        : 640000
    FromStats_Duration                       : 02:18:14.464000000
    FromStats_FrameCount                     : 259202
    FromStats_StreamSize                     : 663557120

    Text #1
    ID                                       : 4
    Format                                   : UTF-8
    Codec ID                                 : S_TEXT/UTF8
    Codec ID/Info                            : UTF-8 Plain Text
    Title                                    : SRT-Forzados
    Language                                 : Spanish
    Default                                  : Yes
    Forced                                   : No
    Statistics Tags Issue                    : mkvmerge v10.0.0 ('To Drown In You') 64bit 2017-10-31 04:39:21 / mkvmerge v10.0.0 ('To Drown In You') 64bit 2017-10-31 04:39:21 / UTC 2017-10-28T04:03:40Z
    FromStats_BitRate                        : 0
    FromStats_Duration                       : 02:10:08.132000000
    FromStats_FrameCount                     : 26
    FromStats_StreamSize                     : 940

    Text #2
    ID                                       : 5
    Format                                   : UTF-8
    Codec ID                                 : S_TEXT/UTF8
    Codec ID/Info                            : UTF-8 Plain Text
    Title                                    : SRT-Completos
    Language                                 : Spanish
    Default                                  : No
    Forced                                   : No
    Statistics Tags Issue                    : mkvmerge v10.0.0 ('To Drown In You') 64bit 2017-10-31 04:39:21 / mkvmerge v10.0.0 ('To Drown In You') 64bit 2017-10-31 04:39:21 / UTC 2017-10-28T04:03:40Z
    FromStats_BitRate                        : 47
    FromStats_Duration                       : 02:10:08.133000000
    FromStats_FrameCount                     : 1300
    FromStats_StreamSize                     : 46417

    Text #3
    ID                                       : 6
    Format                                   : PGS
    Muxing mode                              : zlib
    Codec ID                                 : S_HDMV/PGS
    Codec ID/Info                            : Picture based subtitle format used on BDs/HD-DVDs
    Title                                    : PGS
    Language                                 : Spanish
    Default                                  : No
    Forced                                   : No
    Statistics Tags Issue                    : mkvmerge v10.0.0 ('To Drown In You') 64bit 2017-10-31 04:39:21 / mkvmerge v10.0.0 ('To Drown In You') 64bit 2017-10-31 04:39:21 / UTC 2017-10-28T04:03:40Z
    FromStats_BitRate                        : 11322
    FromStats_Duration                       : 02:17:45.590000000
    FromStats_FrameCount                     : 2574
    FromStats_StreamSize                     : 11698429

    Menu
    00:00:00.000                             : :Dudley Demented
    00:04:50.957                             : :The Advance Guard
    00:10:16.783                             : :Number 12, Grimmauld Place
    00:15:19.919                             : :The Order of the Phoenix
    00:17:43.229                             : :The Ministry of Magic
    00:20:52.418                             : :The Hearing
    00:25:33.532                             : :The Originals
    00:28:07.352                             : :Luna Lovegood
    00:30:20.944                             : :Preserve, Perfect and Prune
    00:34:53.925                             : :Professor Umbridge's Class
    00:37:41.092                             : :Detention with Dolores
    00:41:48.506                             : :Thestrals and Sympathy
    00:44:57.528                             : :The Hogwarts High Inquisitor
    00:50:57.388                             : :In the Hog's Head
    00:56:37.394                             : :Dumbledore's Army
    01:03:28.638                             : :Under the Mistletoe
    01:07:39.055                             : :Occlumency
    01:11:16.105                             : :House of Black
    01:16:30.252                             : :Hagrid's Tale
    01:19:16.585                             : :Unquiet Escape
    01:25:30.959                             : :Grawp
    01:31:30.610                             : :Snape's Worst Memory
    01:34:49.809                             : :O.W.L.S.
    01:37:42.398                             : :Out of the Fire
    01:41:40.261                             : :Fight and Flight
    01:45:59.353                             : :The Department of Mysteries
    01:48:37.177                             : :Beyond the Veil
    01:52:40.921                             : :Side By Side
    01:57:30.710                             : :Wizards Duel
    02:03:33.239                             : :The Lost Prophecy
    02:05:50.710                             : :A Way of Coming Back
    02:08:26.866                             : :End Credits

  • Peso: 5.40 GiB

Sinopsis

Harry Potter regresa por quinto año a Hogwarts aún sacudido por la tragedia ocurrida en el Torneo de los Tres Magos. Debido a que el Ministro de la Magia niega el regreso de Lord Voldemort, Harry se convierte en el centro de atención de la comunidad mágica. Mientras lucha con sus problemas en el colegio, incluyendo a la nueva profesora Dolores Umbridge, intentará aprender más sobre la misteriosa Orden del Fénix.

Ficha técnica

  • Titulo original: Harry Potter and the Order of the Phoenix
  • Fecha de lanzamiento: 28-06-2007 (United Kingdom, United States of America)
  • Director: David Yates
  • Género: Aventura, Familia, Fantasía, Misterio
  • Puntuación: 0.0 0 votos
  • Duración:
    2 h 18 min

Video trailer de la película

Enlaces de descarga

Descargar Harry Potter y la orden del Fénix (2007) Full 1080p Latino
Descargar

dpeliculas

Aportes de DPeliculasHDmega la pass es:dpeliculashdmega.org Aportes de CinemaniaHD la pass es:cinemaniahdd.com
Guardado en : Aventura , Familia , Fantasía , Misterio

Películas relacionadas

  • La autopsia de Jane Doe (2016) Full 1080p Latino

    2016
    La autopsia de Jane Doe (2016) Full 1080p Latino

    0.0 1h 39m 2016

    En una pequeño pueblo de Virginia aparece el cuerpo desnudo y semienterrado de una hermosa joven, misteriosa...

    Director: Sheila McNaught

    Género: FULL 1080p Pesadas

    Actores: Parker Sawyers

  • Guardianes de altamar (2006) Full 1080p Latino

    2006
    Guardianes de altamar (2006) Full 1080p Latino

    0.0 2h 16m 2006

    Después de perder a su equipo en un trágico accidente, Ben Randall, un legendario nadador de rescate,...

    Director: Andrew Davis

    Género: Acción

    Actores: Travis Willingham

  • Locos por las nueces 2 (2017) 1080p Latino

    2017
    Locos por las nueces 2 (2017) 1080p Latino

    0.0 1h 35m 2017

    Continuación de Operación cacahuete en la que conoceremos las nuevas aventuras de la malhumorada ardilla...

    Director: Callan Brunker

    Género: Animación

    Actores: Will Arnett

Comentarios 0