Advertise here

Harry Potter y el misterio del príncipe (2009) Full 1080p Latino

555 vistas
1 estrella2 estrellas3 estrellas4 estrellas5 estrellas (2 votos, promedio: 3,00 de 5)
Cargando…

Información de Harry Potter y el misterio del príncipe (2009) Full 1080p Latino

Datos de la película

  • Calidad: Full 1080p
  • Audio: Español Latino AC3 5.1 BLURAY - Ingles AC3 5.1 BLURAY
  • Subtitulos: Español Latino PGS
  • Resolución: 1920X1080
  • Formato: MKV
  • Codec: H.264
  • Encoder: Dpelis
  • Mediainfo: Clic para Mostrar Datos Ver
  • Format                                   : Matroska
    Format version                           : Version 4 / Version 2
    File size                                : 4.94 GiB
    Duration                                 : 2 h 33 min
    Overall bit rate                         : 4 610 kb/s
    Movie name                               : dpeliculashdmega.org
    Encoded date                             : UTC 2017-11-03 21:55:18
    Writing application                      : mkvmerge v15.0.0 ('Duel with the Devil') 64-bit
    Writing library                          : libebml v1.3.5 + libmatroska v1.4.5

    Video
    ID                                       : 1
    Format                                   : AVC
    Format/Info                              : Advanced Video Codec
    Format profile                           : [email protected]
    Format settings                          : CABAC / 4 Ref Frames
    Format settings, CABAC                   : Yes
    Format settings, RefFrames               : 4 frames
    Codec ID                                 : V_MPEG4/ISO/AVC
    Duration                                 : 2 h 33 min
    Bit rate                                 : 3 318 kb/s
    Width                                    : 1 920 pixels
    Height                                   : 1 080 pixels
    Display aspect ratio                     : 16:9
    Frame rate mode                          : Constant
    Frame rate                               : 23.976 (24000/1001) FPS
    Color space                              : YUV
    Chroma subsampling                       : 4:2:0
    Bit depth                                : 8 bits
    Scan type                                : Progressive
    Bits/(Pixel*Frame)                       : 0.067
    Stream size                              : 3.56 GiB (72%)
    Title                                    : Harry Potter y el misterio del príncipe (2009) Full 1080p Latino
    Writing library                          : x264 core 148 r2708 86b7198
    Encoding settings                        : cabac=1 / ref=4 / deblock=1:0:0 / analyse=0x3:0x133 / me=esa / subme=10 / psy=1 / psy_rd=1.00:0.00 / mixed_ref=1 / me_range=24 / chroma_me=1 / trellis=2 / 8x8dct=1 / cqm=0 / deadzone=21,11 / fast_pskip=1 / chroma_qp_offset=-2 / threads=34 / lookahead_threads=5 / sliced_threads=0 / nr=0 / decimate=1 / interlaced=0 / bluray_compat=0 / constrained_intra=0 / bframes=8 / b_pyramid=2 / b_adapt=2 / b_bias=0 / direct=3 / weightb=1 / open_gop=0 / weightp=2 / keyint=240 / keyint_min=24 / scenecut=40 / intra_refresh=0 / rc_lookahead=60 / rc=crf / mbtree=1 / crf=20.0 / qcomp=0.60 / qpmin=0 / qpmax=69 / qpstep=4 / vbv_maxrate=62500 / vbv_bufsize=78125 / crf_max=0.0 / nal_hrd=none / filler=0 / ip_ratio=1.40 / aq=1:1.00
    Language                                 : English
    Default                                  : Yes
    Forced                                   : No
    Color range                              : Limited
    Color primaries                          : BT.709
    Transfer characteristics                 : BT.709
    Matrix coefficients                      : BT.709

    Audio #1
    ID                                       : 2
    Format                                   : AC-3
    Format/Info                              : Audio Coding 3
    Format settings, Endianness              : Big
    Codec ID                                 : A_AC3
    Duration                                 : 2 h 33 min
    Bit rate mode                            : Constant
    Bit rate                                 : 640 kb/s
    Channel(s)                               : 6 channels
    Channel positions                        : Front: L C R, Side: L R, LFE
    Sampling rate                            : 48.0 kHz
    Frame rate                               : 31.250 FPS (1536 SPF)
    Bit depth                                : 16 bits
    Compression mode                         : Lossy
    Stream size                              : 703 MiB (14%)
    Title                                    : Latino-AC3
    Language                                 : Spanish
    Service kind                             : Complete Main
    Default                                  : Yes
    Forced                                   : No

    Audio #2
    ID                                       : 3
    Format                                   : AC-3
    Format/Info                              : Audio Coding 3
    Format settings, Endianness              : Big
    Codec ID                                 : A_AC3
    Duration                                 : 2 h 33 min
    Bit rate mode                            : Constant
    Bit rate                                 : 640 kb/s
    Channel(s)                               : 6 channels
    Channel positions                        : Front: L C R, Side: L R, LFE
    Sampling rate                            : 48.0 kHz
    Frame rate                               : 31.250 FPS (1536 SPF)
    Bit depth                                : 16 bits
    Compression mode                         : Lossy
    Stream size                              : 703 MiB (14%)
    Title                                    : Ingles-AC3
    Language                                 : English
    Service kind                             : Complete Main
    Default                                  : No
    Forced                                   : No

    Text #1
    ID                                       : 4
    Format                                   : UTF-8
    Codec ID                                 : S_TEXT/UTF8
    Codec ID/Info                            : UTF-8 Plain Text
    Duration                                 : 2 h 26 min
    Bit rate                                 : 44 b/s
    Count of elements                        : 1449
    Stream size                              : 47.7 KiB (0%)
    Title                                    : SRT
    Language                                 : Spanish
    Default                                  : No
    Forced                                   : No

    Text #2
    ID                                       : 5
    Format                                   : PGS
    Muxing mode                              : zlib
    Codec ID                                 : S_HDMV/PGS
    Codec ID/Info                            : Picture based subtitle format used on BDs/HD-DVDs
    Duration                                 : 2 h 33 min
    Bit rate                                 : 22.6 kb/s
    Count of elements                        : 2900
    Stream size                              : 24.8 MiB (0%)
    Title                                    : PGS
    Language                                 : Spanish
    Default                                  : No
    Forced                                   : No

  • Peso: 4.70 GiB

Sinopsis

En medio de los desastres que azotan a Inglaterra, Harry y sus compañeros vuelven a Hogwarts para cursar su sexto año de estudios; y aunque las medidas de seguridad han convertido al colegio en una fortaleza, algunos estudiantes son víctimas de ataques inexplicables. Harry sospecha que Draco Malfoy es el responsable de los mismos y decide averiguar la razón. Mientras tanto, Albus Dumbledore y el protagonista exploran el pasado de Lord Voldemort mediante recuerdos que el director ha recolectado. Con esto, Dumbledore planea preparar al muchacho para el día de la batalla final.

 

Pelicula Reparada el 100%  Disculpen las molestias 😉

Ficha técnica

  • Titulo original: Harry Potter and the Half-Blood Prince
  • Fecha de lanzamiento: 07-07-2009 (United Kingdom, United States of America)
  • Director: Anna Worley, David Yates
  • Género: Aventura, Familia, Fantasía
  • Puntuación: 3.0 2 votos
  • Duración:
    2 h 33 min

Video trailer de la película

Enlaces de descarga

Descargar Harry Potter y el misterio del príncipe (2009) Full 1080p Latino
Descargar

dpeliculas

Aportes de DPeliculasHDmega la pass es:dpeliculashdmega.org Aportes de CinemaniaHD la pass es:cinemaniahdd.com
Guardado en : Aventura , Familia , Fantasía

Películas relacionadas

  • Toy Story 3 (2010) Full 1080p Latino

    2010
    Toy Story 3 (2010) Full 1080p Latino

    0.0 1 h 43 min 2010

    Sabiendo que su dueño Andy, que ya no es un niño, se prepara para ir a la universidad, el vaquero Woody,...

    Director: Mark Sanford

    Género: Animación

    Actores: Whoopi Goldberg

  • Toy Story (1995) Full 1080p Latino

    1995
    Toy Story (1995) Full 1080p Latino

    0.0 1 h 21 min 1995

    Los juguetes de Andy, un niño de 6 años, temen que haya llegado su hora y que un nuevo regalo de cumpleaños...

    Director: Roman Figun

    Género: Animación

    Actores: Wallace Shawn

  • Avatar (2009) EXTENDED Full 1080p Latino

    2009
    Avatar (2009) EXTENDED Full 1080p Latino

    0.0 2 h 58 min 2009

    Jake Sully, un ex-marine confinado a una silla de ruedas, es reclutado para viajar al planeta Pandora,...

    Director: James Cameron

    Género: Acción

    Actores: Zoe Saldana

  • Aladdín (1992) Full 1080p Latino

    1992
    Aladdín (1992) Full 1080p Latino

    0.0 1 h 30 min 1992

    Basada en el famoso cuento "Aladino y la lámpara maravillosa", la trama se sitúa en el exótico paisaje...

    Director: Tom Shannon

    Género: Animación

    Actores: Vera Lockwood

Comentarios 19
  • iDeztrukxion - 09 noviembre, 2017

    disculpen ya arreglaron la pelicula? la descargue cuando recién la publicaron pero hasta apenas la vi y se congela 1:40:00

    • Dpelis2 pelis2

      Autor
      - 09 noviembre, 2017

      Ya esta arreglada hace tiempo amigo! descarga tranqilo

      • iDeztrukxion - 09 noviembre, 2017

        muchas gracias la volveré a descargar! =D

  • ale27 - 03 noviembre, 2017

    la pelicula pesa 4.70 GB

    • Dpelis2 pelis2

      Autor
      - 03 noviembre, 2017

      Ya vi el problema son los subs PGS que hace que la película se corte. La volveré a subir con subtitulos SRT Una disculpa

  • ale27 - 03 noviembre, 2017

    la pelicula tiene problema a 1:40:20 se congela .gracias espero que lo solucionen pronto

    • Dpelis2 pelis2

      Autor
      - 03 noviembre, 2017

      Cual es el peso de la película que tienes?

      • ale27 - 03 noviembre, 2017

        el peso de la pelicula es de 4.70 gb
        creo saber el problema a la pelicula le saque el audio en ingles y todos los subtitulos y funciona bien
        tambien probe solo con audio en ingles con los subtitulos pero se vuelve a congelar

        • Dpelis2 pelis2

          Autor
          - 03 noviembre, 2017

          Es super raro por que ya la revise 2 veces y no se me corta en ningún momento.

  • moises - 03 noviembre, 2017

    hola,la peliula sigue mäl, como a la hora y cuarto se corta el audio, gracias

    • Dpelis2 pelis2

      Autor
      - 03 noviembre, 2017

      Hola lo acabo de revisar y no se corta! seguro que descargaste la nueva versión?
      y si es asi podrías decirme en que momento exacto se corta pls, Saludos

      • moises - 03 noviembre, 2017

        a la 1:40, igual ahora me la voy a volver a bajar, quizas era la version vieja,gracias por responder

        • Dpelis2 pelis2

          Autor
          - 03 noviembre, 2017

          Ya se lo que pasa son los PGS que estan mal por eso se corta la pelicula pero si adelantas manualmente uno o dos munutos se arregla. pero ya no se podran ver los PGS, Una disculpa pero la subire otra vez pero ahora con Subs SRT

  • moises - 03 noviembre, 2017

    sigue estando mal la pelicula casi a la hora cuarenta se corta el audio completamente

    • Dpelis2 pelis2

      Autor
      - 03 noviembre, 2017

      Hola acabo de revisas la peliculas y no se corta en ningún momento…
      pls decirme en el momento exacto cuando se corta
      Gracias

  • jk2018 - 02 noviembre, 2017

    por favor Indica cuando ya este listo la reparación… gracias por atendernos…

    • Dpelis2 pelis2

      Autor
      - 02 noviembre, 2017

      No mas de 24 horas estará lista.
      Saludos

  • vilko - 01 noviembre, 2017

    pueden volver a subirla ya que despues de 1:40:28 min se para
    arreglarlo porfavor

    • Dpelis2 pelis2

      Autor
      - 01 noviembre, 2017

      Ok amiga ya revise y si esta mal. una disculpa! se arreglara lo mas pronto posible
      Saludos