Advertise here

Harry Potter y el cáliz de fuego (2005) Full 1080p Latino

358 vistas
1 estrella2 estrellas3 estrellas4 estrellas5 estrellas (Ninguna valoración todavía)
Cargando…

Información de Harry Potter y el cáliz de fuego (2005) Full 1080p Latino

Datos de la película

  • Calidad: Full 1080p
  • Audio: Español Latino AC3 5.1 BLURAY - Ingles DTS 5.1 BLURAY
  • Subtitulos: Español Latino PGS
  • Resolución: 1920X1080
  • Formato: MKV
  • Codec: H.264
  • Encoder: Dpelis
  • Mediainfo: Clic para Mostrar Datos Ver
  • Format                                   : Matroska
    Format version                           : Version 4 / Version 2
    File size                                : 6.89 GiB
    Duration                                 : 2 h 37 min
    Overall bit rate                         : 6 281 kb/s
    Movie name                               : dpeliculashdmega.org
    Encoded date                             : UTC 2017-10-31 04:25:11 / UTC 2017-10-28T03:07:42Z
    Writing application                      : mkvmerge v10.0.0 ('To Drown In You') 64bit
    Writing library                          : libebml v1.3.4 + libmatroska v1.4.5 / Lavf57.7.2

    Video
    ID                                       : 1
    Format                                   : AVC
    Format/Info                              : Advanced Video Codec
    Format profile                           : [email protected]
    Format settings                          : CABAC / 4 Ref Frames
    Format settings, CABAC                   : Yes
    Format settings, RefFrames               : 4 frames
    Codec ID                                 : V_MPEG4/ISO/AVC
    Duration                                 : 2 h 37 min
    Bit rate                                 : 4 007 kb/s
    Width                                    : 1 920 pixels
    Height                                   : 1 080 pixels
    Display aspect ratio                     : 16:9
    Frame rate mode                          : Constant
    Frame rate                               : 23.976 (24000/1001) FPS
    Color space                              : YUV
    Chroma subsampling                       : 4:2:0
    Bit depth                                : 8 bits
    Scan type                                : Progressive
    Bits/(Pixel*Frame)                       : 0.081
    Stream size                              : 4.40 GiB (64%)
    Title                                    : Harry Potter y el cáliz de fuego (2005) Full 1080p Latino
    Writing library                          : x264 core 148 r2708 86b7198
    Encoding settings                        : cabac=1 / ref=4 / deblock=1:0:0 / analyse=0x3:0x133 / me=esa / subme=10 / psy=1 / psy_rd=1.00:0.00 / mixed_ref=1 / me_range=24 / chroma_me=1 / trellis=2 / 8x8dct=1 / cqm=0 / deadzone=21,11 / fast_pskip=1 / chroma_qp_offset=-2 / threads=12 / lookahead_threads=2 / sliced_threads=0 / nr=0 / decimate=1 / interlaced=0 / bluray_compat=0 / constrained_intra=0 / bframes=8 / b_pyramid=2 / b_adapt=2 / b_bias=0 / direct=3 / weightb=1 / open_gop=0 / weightp=2 / keyint=240 / keyint_min=24 / scenecut=40 / intra_refresh=0 / rc_lookahead=60 / rc=crf / mbtree=1 / crf=20.0 / qcomp=0.60 / qpmin=0 / qpmax=69 / qpstep=4 / vbv_maxrate=62500 / vbv_bufsize=78125 / crf_max=0.0 / nal_hrd=none / filler=0 / ip_ratio=1.40 / aq=1:1.00
    Language                                 : English
    Default                                  : Yes
    Forced                                   : No
    Color range                              : Limited
    Color primaries                          : BT.709
    Transfer characteristics                 : BT.709
    Matrix coefficients                      : BT.709
    Statistics Tags Issue                    : mkvmerge v10.0.0 ('To Drown In You') 64bit 2017-10-31 04:25:11 / mkvmerge v10.0.0 ('To Drown In You') 64bit 2017-10-31 04:25:11 / UTC 2017-10-28T03:07:42Z
    FromStats_BitRate                        : 4118049
    FromStats_Duration                       : 02:37:05.458000000
    FromStats_FrameCount                     : 225985
    FromStats_StreamSize                     : 4851813043

    Audio #1
    ID                                       : 2
    Format                                   : AC-3
    Format/Info                              : Audio Coding 3
    Format settings, Endianness              : Big
    Codec ID                                 : A_AC3
    Duration                                 : 2 h 37 min
    Bit rate mode                            : Constant
    Bit rate                                 : 640 kb/s
    Channel(s)                               : 6 channels
    Channel positions                        : Front: L C R, Side: L R, LFE
    Sampling rate                            : 48.0 kHz
    Frame rate                               : 31.250 FPS (1536 SPF)
    Bit depth                                : 16 bits
    Compression mode                         : Lossy
    Stream size                              : 719 MiB (10%)
    Title                                    : Latino-AC3
    Language                                 : Spanish
    Service kind                             : Complete Main
    Default                                  : Yes
    Forced                                   : No
    Statistics Tags Issue                    : mkvmerge v10.0.0 ('To Drown In You') 64bit 2017-10-31 04:25:11 / mkvmerge v10.0.0 ('To Drown In You') 64bit 2017-10-31 04:25:11 / UTC 2017-10-28T03:07:42Z
    FromStats_BitRate                        : 640000
    FromStats_Duration                       : 02:37:05.536000000
    FromStats_FrameCount                     : 294548
    FromStats_StreamSize                     : 754042880

    Audio #2
    ID                                       : 3
    Format                                   : DTS
    Format/Info                              : Digital Theater Systems
    Mode                                     : 16
    Format settings, Endianness              : Big
    Codec ID                                 : A_DTS
    Duration                                 : 2 h 37 min
    Bit rate mode                            : Constant
    Bit rate                                 : 1 510 kb/s
    Channel(s)                               : 6 channels
    Channel positions                        : Front: L C R, Side: L R, LFE
    Sampling rate                            : 48.0 kHz
    Frame rate                               : 93.750 FPS (512 SPF)
    Bit depth                                : 24 bits
    Compression mode                         : Lossy
    Stream size                              : 1.66 GiB (24%)
    Title                                    : Ingles-DTS
    Language                                 : English
    Default                                  : No
    Forced                                   : No
    Statistics Tags Issue                    : mkvmerge v10.0.0 ('To Drown In You') 64bit 2017-10-31 04:25:11 / mkvmerge v10.0.0 ('To Drown In You') 64bit 2017-10-31 04:25:11 / UTC 2017-10-28T03:07:42Z
    FromStats_BitRate                        : 1509749
    FromStats_Duration                       : 02:37:05.494000000
    FromStats_FrameCount                     : 883640
    FromStats_StreamSize                     : 1778767320

    Text #1
    ID                                       : 4
    Format                                   : UTF-8
    Codec ID                                 : S_TEXT/UTF8
    Codec ID/Info                            : UTF-8 Plain Text
    Title                                    : SRT-Forzados
    Language                                 : Spanish
    Default                                  : Yes
    Forced                                   : No
    Statistics Tags Issue                    : mkvmerge v10.0.0 ('To Drown In You') 64bit 2017-10-31 04:25:11 / mkvmerge v10.0.0 ('To Drown In You') 64bit 2017-10-31 04:25:11 / UTC 2017-10-28T03:07:42Z
    FromStats_BitRate                        : 0
    FromStats_Duration                       : 00:35:19.282000000
    FromStats_FrameCount                     : 5
    FromStats_StreamSize                     : 163

    Text #2
    ID                                       : 5
    Format                                   : UTF-8
    Codec ID                                 : S_TEXT/UTF8
    Codec ID/Info                            : UTF-8 Plain Text
    Title                                    : SRT-Completos
    Language                                 : Spanish
    Default                                  : No
    Forced                                   : No
    Statistics Tags Issue                    : mkvmerge v10.0.0 ('To Drown In You') 64bit 2017-10-31 04:25:11 / mkvmerge v10.0.0 ('To Drown In You') 64bit 2017-10-31 04:25:11 / UTC 2017-10-28T03:07:42Z
    FromStats_BitRate                        : 46
    FromStats_Duration                       : 02:25:28.343000000
    FromStats_FrameCount                     : 1501
    FromStats_StreamSize                     : 50713

    Text #3
    ID                                       : 6
    Format                                   : PGS
    Muxing mode                              : zlib
    Codec ID                                 : S_HDMV/PGS
    Codec ID/Info                            : Picture based subtitle format used on BDs/HD-DVDs
    Title                                    : PGS
    Language                                 : Spanish
    Default                                  : No
    Forced                                   : No
    Statistics Tags Issue                    : mkvmerge v10.0.0 ('To Drown In You') 64bit 2017-10-31 04:25:11 / mkvmerge v10.0.0 ('To Drown In You') 64bit 2017-10-31 04:25:11 / UTC 2017-10-28T03:07:42Z
    FromStats_BitRate                        : 10877
    FromStats_Duration                       : 02:36:03.897000000
    FromStats_FrameCount                     : 2996
    FromStats_StreamSize                     : 12732225

    Menu
    00:00:00.000                             : :The Riddle House
    00:03:46.560                             : :The Hungrian Horntail
    00:06:09.369                             : :Sirius Conversation
    00:09:50.090                             : :Rita Keeter
    00:13:45.325                             : :Let Events Unfold
    00:19:14.987                             : :The Four Champions
    00:23:09.388                             : :The Unforgivable Curses
    00:29:01.573                             : :The Goblet of Fire
    00:36:26.685                             : :The Triwizard Tournament
    00:39:05.009                             : :The Dark Mark
    00:41:32.490                             : :The Quidditch World Cup
    00:45:36.400                             : :The Portkey
    00:49:07.778                             : :Best Foot Forward
    00:54:06.243                             : :The First Task
    01:02:46.596                             : :Tranforming Malfoy
    01:09:12.982                             : :An Unexpected Challenge
    01:14:43.980                             : :The Yule Ball
    01:22:27.609                             : :The Egg's Clue
    01:30:34.763                             : :The Second Task
    01:39:29.297                             : :Never Whole Again
    01:42:42.490                             : :The Pensieve
    01:47:22.937                             : :Dreams and Suspicions
    01:50:19.279                             : :The Third Task
    01:58:54.461                             : :Flesh, Blood and Bone
    02:02:02.315                             : :The Death Eaters
    02:06:36.589                             : :Priori Incantatem
    02:10:01.627                             : :Veritaserum
    02:17:38.083                             : :Parting Ways
    02:23:48.620                             : :End Credits

  • Peso: 6.89 GiB

Sinopsis

En el cuarto año en Hogwarts, Harry se enfrenta al mayor de los desafíos y peligros de la saga. Cuando es elegido bajo misteriosas circunstancias como el competidor que representará a Hogwarts en el Torneo Triwizard, Harry deberá competir contra los mejores jóvenes magos de toda Europa. Pero mientras se prepara, aparecen pruebas que manifiestan que Lord Voldemort ha regresado. Antes de darse cuenta, Harry no solo estará luchando por el campeonato sino también por su vida

Ficha técnica

Video trailer de la película

Enlaces de descarga

Descargar Harry Potter y el cáliz de fuego (2005) Full 1080p Latino
Descargar

dpeliculas

Aportes de DPeliculasHDmega la pass es:dpeliculashdmega.org Aportes de CinemaniaHD la pass es:cinemaniahdd.com
Guardado en : Aventura , Familia , Fantasía

Películas relacionadas

  • Toy Story (1995) Full 1080p Latino

    1995
    Toy Story (1995) Full 1080p Latino

    0.0 1 h 21 min 1995

    Los juguetes de Andy, un niño de 6 años, temen que haya llegado su hora y que un nuevo regalo de cumpleaños...

    Director: Roman Figun

    Género: Animación

    Actores: Wallace Shawn

  • Avatar (2009) EXTENDED Full 1080p Latino

    2009
    Avatar (2009) EXTENDED Full 1080p Latino

    0.0 2 h 58 min 2009

    Jake Sully, un ex-marine confinado a una silla de ruedas, es reclutado para viajar al planeta Pandora,...

    Director: James Cameron

    Género: Acción

    Actores: Zoe Saldana

  • Aladdín (1992) Full 1080p Latino

    1992
    Aladdín (1992) Full 1080p Latino

    0.0 1 h 30 min 1992

    Basada en el famoso cuento "Aladino y la lámpara maravillosa", la trama se sitúa en el exótico paisaje...

    Director: Tom Shannon

    Género: Animación

    Actores: Vera Lockwood

Comentarios 3
  • pelis mega - 04 noviembre, 2017

    Ola, sabes si puedo bajarla, como lo hago, gracias.

    • Dpelis2 pelis2

      Autor
      - 05 noviembre, 2017

      Abajo del trailer están los pasos para descargarla..

  • Logan - 01 noviembre, 2017

    muchas gracias agradezco todos los aportes