Guardianes de la galaxia (2014) Full 1080p Latino

1.268 vistas
1 estrella2 estrellas3 estrellas4 estrellas5 estrellas (2 votos, promedio: 5,00 de 5)
Cargando…

Información de Guardianes de la galaxia (2014) Full 1080p Latino

Datos de la película

  • Calidad: Full 1080p
  • Audio: Español Latino AC3 5.1 BLURAY - Ingles DTS 5.1 BLURAY
  • Subtitulos: Español Latino PGS - Ingles PGS
  • Resolución: 1920x1080p
  • Formato: MKV
  • Codec: H.264
  • Encoder: Dpelis
  • Mediainfo: Ver Ver
  • Guardians of the Galaxy (2014) Full 1080p Latino.mkv
    Format                      : Matroska
    Format version              : Version 4 / Version 2
    File size                   : 4.61 GiB
    Duration                    : 2 h 0 min
    Overall bit rate            : 5 463 kb/s
    Movie name                  : DPeliculasHDMega.ORG
    Encoded date                : UTC 2017-08-25 16:14:44 / UTC 2017-08-25T12:28:15Z
    Writing application         : mkvmerge v10.0.0 ('To Drown In You') 64bit
    Writing library             : libebml v1.3.4 + libmatroska v1.4.5 / Lavf57.7.2

    Video
    ID                          : 1
    Format                      : AVC
    Format/Info                 : Advanced Video Codec
    Format profile              : [email protected]
    Format settings, CABAC      : Yes
    Format settings, ReFrames   : 4 frames
    Codec ID                    : V_MPEG4/ISO/AVC
    Duration                    : 2 h 0 min
    Bit rate                    : 3 205 kb/s
    Width                       : 1 920 pixels
    Height                      : 1 080 pixels
    Display aspect ratio        : 16:9
    Frame rate mode             : Constant
    Frame rate                  : 23.976 (24000/1001) FPS
    Color space                 : YUV
    Chroma subsampling          : 4:2:0
    Bit depth                   : 8 bits
    Scan type                   : Progressive
    Bits/(Pixel*Frame)          : 0.064
    Stream size                 : 2.71 GiB (59%)
    Writing library             : x264 core 148 r2708 86b7198
    Encoding settings           : cabac=1 / ref=4 / deblock=1:0:0 / analyse=0x3:0x133 / me=esa / subme=10 / psy=1 / psy_rd=1.00:0.00 / mixed_ref=1 / me_range=24 / chroma_me=1 / trellis=2 / 8x8dct=1 / cqm=0 / deadzone=21,11 / fast_pskip=1 / chroma_qp_offset=-2 / threads=34 / lookahead_threads=5 / sliced_threads=0 / nr=0 / decimate=1 / interlaced=0 / bluray_compat=0 / constrained_intra=0 / bframes=8 / b_pyramid=2 / b_adapt=2 / b_bias=0 / direct=3 / weightb=1 / open_gop=0 / weightp=2 / keyint=240 / keyint_min=24 / scenecut=40 / intra_refresh=0 / rc_lookahead=60 / rc=crf / mbtree=1 / crf=20.0 / qcomp=0.60 / qpmin=0 / qpmax=69 / qpstep=4 / vbv_maxrate=62500 / vbv_bufsize=78125 / crf_max=0.0 / nal_hrd=none / filler=0 / ip_ratio=1.40 / aq=1:1.00
    Default                     : Yes
    Forced                      : No
    Color range                 : Limited
    Color primaries             : BT.709
    Transfer characteristics    : BT.709
    Matrix coefficients         : BT.709
    Statistics Tags Issue       : mkvmerge v10.0.0 ('To Drown In You') 64bit 2017-08-25 16:14:44 / mkvmerge v10.0.0 ('To Drown In You') 64bit 2017-08-25 16:14:44 / UTC 2017-08-25T12:28:15Z
    FromStats_BitRate           : 3269564
    FromStats_Duration          : 02:00:51.161000000
    FromStats_FrameCount        : 173854
    FromStats_StreamSize        : 2963517123

    Audio #1
    ID                          : 2
    Format                      : AC-3
    Format/Info                 : Audio Coding 3
    Format settings, Endianness : Big
    Codec ID                    : A_AC3
    Duration                    : 2 h 0 min
    Bit rate mode               : Constant
    Bit rate                    : 640 kb/s
    Channel(s)                  : 6 channels
    Channel positions           : Front: L C R, Side: L R, LFE
    Sampling rate               : 48.0 kHz
    Frame rate                  : 31.250 FPS (1536 spf)
    Bit depth                   : 16 bits
    Compression mode            : Lossy
    Stream size                 : 553 MiB (12%)
    Title                       : Surround
    Language                    : Spanish
    Service kind                : Complete Main
    Default                     : Yes
    Forced                      : No
    Statistics Tags Issue       : mkvmerge v10.0.0 ('To Drown In You') 64bit 2017-08-25 16:14:44 / mkvmerge v10.0.0 ('To Drown In You') 64bit 2017-08-25 16:14:44 / UTC 2017-08-25T12:28:15Z
    FromStats_BitRate           : 640000
    FromStats_Duration          : 02:00:51.232000000
    FromStats_FrameCount        : 226601
    FromStats_StreamSize        : 580098560

    Audio #2
    ID                          : 3
    Format                      : DTS
    Format/Info                 : Digital Theater Systems
    Mode                        : 16
    Format settings, Endianness : Big
    Codec ID                    : A_DTS
    Duration                    : 2 h 0 min
    Bit rate mode               : Constant
    Bit rate                    : 1 509 kb/s
    Channel(s)                  : 6 channels
    Channel positions           : Front: L C R, Side: L R, LFE
    Sampling rate               : 48.0 kHz
    Frame rate                  : 93.750 FPS (512 spf)
    Bit depth                   : 24 bits
    Compression mode            : Lossy
    Stream size                 : 1.27 GiB (28%)
    Title                       : Surround
    Language                    : English
    Default                     : No
    Forced                      : No
    Statistics Tags Issue       : mkvmerge v10.0.0 ('To Drown In You') 64bit 2017-08-25 16:14:44 / mkvmerge v10.0.0 ('To Drown In You') 64bit 2017-08-25 16:14:44 / UTC 2017-08-25T12:28:15Z
    FromStats_BitRate           : 1509000
    FromStats_Duration          : 02:00:51.200000000
    FromStats_FrameCount        : 679800
    FromStats_StreamSize        : 1367757600

    Text #1
    ID                          : 4
    Format                      : PGS
    Muxing mode                 : zlib
    Codec ID                    : S_HDMV/PGS
    Codec ID/Info               : Picture based subtitle format used on BDs/HD-DVDs
    Language                    : Spanish
    Default                     : No
    Forced                      : No
    Statistics Tags Issue       : mkvmerge v10.0.0 ('To Drown In You') 64bit 2017-08-25 16:14:44 / mkvmerge v10.0.0 ('To Drown In You') 64bit 2017-08-25 16:14:44 / UTC 2017-08-25T12:28:15Z
    FromStats_BitRate           : 9135
    FromStats_Duration          : 02:00:31.683000000
    FromStats_FrameCount        : 2886
    FromStats_StreamSize        : 8257872

    Text #2
    ID                          : 5
    Format                      : PGS
    Muxing mode                 : zlib
    Codec ID                    : S_HDMV/PGS
    Codec ID/Info               : Picture based subtitle format used on BDs/HD-DVDs
    Language                    : Spanish
    Default                     : No
    Forced                      : No
    Statistics Tags Issue       : mkvmerge v10.0.0 ('To Drown In You') 64bit 2017-08-25 16:14:44 / mkvmerge v10.0.0 ('To Drown In You') 64bit 2017-08-25 16:14:44 / UTC 2017-08-25T12:28:15Z
    FromStats_BitRate           : 21046
    FromStats_Duration          : 02:00:39.607000000
    FromStats_FrameCount        : 4518
    FromStats_StreamSize        : 19046087

    Text #3
    ID                          : 6
    Format                      : PGS
    Muxing mode                 : zlib
    Codec ID                    : S_HDMV/PGS
    Codec ID/Info               : Picture based subtitle format used on BDs/HD-DVDs
    Language                    : English
    Default                     : No
    Forced                      : No
    Statistics Tags Issue       : mkvmerge v10.0.0 ('To Drown In You') 64bit 2017-08-25 16:14:44 / mkvmerge v10.0.0 ('To Drown In You') 64bit 2017-08-25 16:14:44 / UTC 2017-08-25T12:28:15Z
    FromStats_BitRate           : 11081
    FromStats_Duration          : 02:00:27.220000000
    FromStats_FrameCount        : 3334
    FromStats_StreamSize        : 10010894

    Menu
    00:00:00.000                : :Chapter 1
    00:04:05.704                : :Chapter 2
    00:11:21.806                : :Chapter 3
    00:15:21.712                : :Chapter 4
    00:20:54.420                : :Chapter 5
    00:27:11.213                : :Chapter 6
    00:33:58.828                : :Chapter 7
    00:44:28.249                : :Chapter 8
    00:50:53.008                : :Chapter 9
    00:55:17.564                : :Chapter 10
    00:59:45.207                : :Chapter 11
    01:06:06.921                : :Chapter 12
    01:14:46.023                : :Chapter 13
    01:22:20.644                : :Chapter 14
    01:26:29.726                : :Chapter 15
    01:30:23.877                : :Chapter 16
    01:35:58.378                : :Chapter 17
    01:40:46.749                : :Chapter 18
    01:47:35.366                : :Chapter 19
    01:53:16.623                : :Chapter 20
    02:00:10.787                : :Chapter 21

  • Peso: 4.61 GB

Sinopsis

El temerario aventurero Peter Quill es objeto de un implacable cazarrecompensas después de robar una misteriosa esfera codiciada por Ronan, un poderoso villano cuya ambición amenaza todo el universo. Para poder escapar del incansable Ronan, Quill se ve obligado a pactar una complicada tregua con un cuarteto de disparatados inadaptados: Rocket, un mapache armado con un rifle, Groot, un humanoide con forma de árbol, la letal y enigmática Gamora y el vengativo Drax the Destroyer. Pero cuando Quill descubre el verdadero poder de la esfera, deberá hacer todo lo posible para derrotar a sus extravagantes rivales en un intento desesperado de salvar el destino de la galaxia.

Ficha técnica

Imágenes, Capturas de la película

Video trailer de la película

Enlaces de descarga

Descargar Guardianes de la galaxia (2014) Full 1080p Latino
Descargar

dpeliculas

Aportes de DPeliculasHDmega la pass es:dpeliculashdmega.org Aportes de CinemaniaHD la pass es:cinemaniahdd.com

PelícuDelas relacionadas

  • La momia (2017) 3D OU 1080p Latino

    2017
    La momia (2017) 3D OU 1080p Latino

    0.0 1h 50m 2017

    Descargar gratis La momia (2017) 3D OU 1080p Latino. A pesar de estar enterrada en una tumba en lo más...

    Director: Jo Beckett

    Género: 3D Half OU

    Actores: Vera Chok

  • Dragon Ball Super (2015) Full 1080p Latino

    2015
    Dragon Ball Super (2015) Full 1080p Latino

    4.1 0h 24m 2015

    Si eres un seguidor de la serie Dragon ball super latino, entonces ahora puedes disfrutar de esta maravillosa...

    Director: Akira Toriyama

    Género: Anime

    Actores: Naoki Tatsuta

  • Enredados otra vez (2017) WEBDL 1080p Latino

    2017
    Enredados otra vez (2017) WEBDL 1080p Latino

    5.0 0h 55m 2017

    Descargar Pelicula Tangled: Before Ever After Calidad WEBDL Latino¡Mientras Rapunzel se prepara para...

    Director: Tom Caulfield

    Género: Animación

    Actores: Zachary Levi

Comentarios 5
  • rodry - 26 agosto, 2017

    buenas dpelishdmega, la parte 2 y 3 me sale fichero dañado ya intente repararla pero nada estan con algun tipo de falla ayuda!!!

    • dpelis

      Administrador
      - 27 agosto, 2017

      bajr de otro server o rpear rar

  • Ragnarok - 26 agosto, 2017

    hola, que diferencia hay entre esta versión y esta otra:https://dpeliculashdmega.org/guardianes-de-la-galaxia-vol-2-1080p-latino/
    Cual es mejor?

    • dpelis

      Administrador
      - 26 agosto, 2017

      calidad igual, diferencia q la otra es imax, recomiendo la imax

    • Mr. Black - 27 agosto, 2017

      Que son diferentes películas :v