Mi villano favorito 3 (2017) WEBRip 1080p Latino

5.438 vistas
1 estrella2 estrellas3 estrellas4 estrellas5 estrellas (2 votos, promedio: 5,00 de 5)
Cargando…

Información de Mi villano favorito 3 (2017) WEBRip 1080p Latino

Datos de la película

  • Calidad: WEBDL
  • Audio: Se especifica abajo de la Sinopsis
  • Subtitulos: Español Latino SRT - Ingles SRT
  • Resolución: 1920x800p
  • Formato: MKV
  • Codec: H.264
  • Encoder: Dpelis
  • Mediainfo: Ver Ver
  • \Despicable Me 3 2017 1080p.WEBRip 1080p LatinoLine (1).mkv
    Format                      : Matroska
    Format version              : Version 4 / Version 2
    File size                   : 3.99 GiB
    Duration                    : 1 h 29 min
    Overall bit rate            : 6 382 kb/s
    Movie name                  : DPeliculasHDMega.ORG
    Encoded date                : UTC 2017-09-03 20:21:48
    Writing application         : mkvmerge v10.0.0 ('To Drown In You') 64bit
    Writing library             : libebml v1.3.4 + libmatroska v1.4.5
    Cover                       : Yes
    Attachments                 : cover_land.jpg / small_cover.jpg / small_cover_land.jpg / cover.jpg

    Video
    ID                          : 1
    Format                      : AVC
    Format/Info                 : Advanced Video Codec
    Format profile              : [email protected]
    Format settings, CABAC      : Yes
    Format settings, ReFrames   : 4 frames
    Codec ID                    : V_MPEG4/ISO/AVC
    Duration                    : 1 h 29 min
    Bit rate                    : 5 898 kb/s
    Width                       : 1 920 pixels
    Height                      : 800 pixels
    Display aspect ratio        : 2.40:1
    Frame rate mode             : Constant
    Frame rate                  : 30.000 FPS
    Color space                 : YUV
    Chroma subsampling          : 4:2:0
    Bit depth                   : 8 bits
    Scan type                   : Progressive
    Bits/(Pixel*Frame)          : 0.128
    Stream size                 : 3.69 GiB (92%)
    Default                     : Yes
    Forced                      : No
    Color range                 : Limited
    Color primaries             : BT.709
    Transfer characteristics    : BT.709
    Matrix coefficients         : BT.709

    Audio #1
    ID                          : 2
    Format                      : AC-3
    Format/Info                 : Audio Coding 3
    Format settings, Endianness : Big
    Codec ID                    : A_AC3
    Duration                    : 1 h 29 min
    Bit rate mode               : Constant
    Bit rate                    : 256 kb/s
    Channel(s)                  : 2 channels
    Channel positions           : Front: L R
    Sampling rate               : 48.0 kHz
    Frame rate                  : 31.250 FPS (1536 spf)
    Bit depth                   : 16 bits
    Compression mode            : Lossy
    Stream size                 : 164 MiB (4%)
    Language                    : Spanish
    Service kind                : Complete Main
    Default                     : Yes
    Forced                      : No

    Audio #2
    ID                          : 3
    Format                      : AAC
    Format/Info                 : Advanced Audio Codec
    Format profile              : LC
    Codec ID                    : A_AAC
    Duration                    : 1 h 29 min
    Bit rate                    : 224 kb/s
    Channel(s)                  : 2 channels
    Channel positions           : Front: L R
    Sampling rate               : 48.0 kHz
    Frame rate                  : 46.875 FPS (1024 spf)
    Compression mode            : Lossy
    Stream size                 : 143 MiB (4%)
    Language                    : English
    Default                     : No
    Forced                      : No

    Text #1
    ID                          : 4
    Format                      : UTF-8
    Codec ID                    : S_TEXT/UTF8
    Codec ID/Info               : UTF-8 Plain Text
    Duration                    : 10 s 100 ms
    Bit rate                    : 87 b/s
    Count of elements           : 1
    Stream size                 : 110 Bytes (0%)
    Language                    : Spanish
    Default                     : Yes
    Forced                      : No

    Text #2
    ID                          : 5
    Format                      : UTF-8
    Codec ID                    : S_TEXT/UTF8
    Codec ID/Info               : UTF-8 Plain Text
    Duration                    : 1 h 21 min
    Bit rate                    : 55 b/s
    Count of elements           : 1209
    Stream size                 : 33.0 KiB (0%)
    Language                    : English
    Default                     : No
    Forced                      : No

    Text #3
    ID                          : 6
    Format                      : UTF-8
    Codec ID                    : S_TEXT/UTF8
    Codec ID/Info               : UTF-8 Plain Text
    Duration                    : 1 h 22 min
    Bit rate                    : 58 b/s
    Count of elements           : 1203
    Stream size                 : 35.5 KiB (0%)
    Language                    : Spanish
    Default                     : No
    Forced                      : No

  • Peso: 3.99 GB

Sinopsis

A Gru lo han despedido. Se ha quedado sin trabajo porque ha dejado escapar al supervillano Balthazar Bratt. Bratt fue una estrella infantil de los años 80 protagonista de una serie donde interpretaba a una joven mente criminal que utilizaba una combinación entre técnicas de baile pop, artes marciales y juguetes de alta tecnología. Pero, con la llegada de la pubertad lo perdió todo y ha estado creando el caos en todo el planeta.

Claro que ahora, Gru se enfrenta a otros problemas. Y es que va a conocer a su hermano gemelo Dru, un multimillonario igualito que él, pero con pelo largo y rubio que viste de blanco. Dru es excéntrico y extrovertido y Gru, aunque con sentido del humor, sigue siendo un cascarrabias. Además, ahora Gru tendrá que decidir si está listo para continuar la tradición familiar de dedicarse al crimen, y unirse a su hermano para llevar a cabo un último golpe. Aunque ha dejado esa vida atrás… ¿volverá a convertirse Gru en un villano?

Nueva película de la saga de animación que comenzó en 2010 con Gru. Mi villano favorito y continuó tres años después con Gru. Mi villano favorito 2. Pierre Coffin vuelve a dirigir esta tercera entrega, esta vez acompañado de Kyle Balda, responsable de Los Minions (2015), y de Eric Guillon, diseñador de personajes de las dos anteriores películas. En la versión original del filme las voces protagonistas son las de Steve Carell (La gran apuesta) como Gru, Kristen Wiig (Cazafantasmas) como Lucy, Trey Parker (South Park) como el villano Bratt, además de las jóvenes actrices Miranda Crosgrove, Dana Gaier y Nev Scharrel como Margo, Edith y Agnes, respectivamente. En la versión en castellano el encargado de poner voz a Gru es nuevamente Florentino Fernández ‘Flo’ (Torrente 5: Operación Eurovegas, Isi & Disi, alto voltaje).

Español Latino AC3 2.0(LINE BUENA CALIDAD)  – Ingles AAC 2.0

Ficha técnica

Imágenes, Capturas de la película

Video trailer de la película

Enlaces de descarga

Descargar Mi villano favorito 3 (2017) WEBRip 1080p Latino
Descargar

dpeliculas

Aportes de DPeliculasHDmega la pass es:dpeliculashdmega.org Aportes de CinemaniaHD la pass es:cinemaniahdd.com

PelícuDelas relacionadas

Comentarios 13
  • juan - 09 septiembre, 2017

    hey

  • k4roso - 04 septiembre, 2017

    sigue con sonido de cine!!! cuando suben la de mejor calidad??

    • dpelis

      Administrador
      - 04 septiembre, 2017

      ahi dije es line. en 3 semanas,. audio final

  • francisco - 04 septiembre, 2017

    hola amigo una consulta como cuando van a subir mi villano favorito 3 en caratula plateada??

    • dpelis

      Administrador
      - 04 septiembre, 2017

      en 3 semanas

  • Cliente caliente - 03 septiembre, 2017

    Así que el audio de esta peli no es final, sino “line de buena calidad”… Y ni siquiera está completo, contiene publicidad en medio de la película. Sigan así, la competencia estará agradecida!!!

    • dpelis

      Administrador
      - 03 septiembre, 2017

      ya fue reparado. la persona que me envio el audio no me dijo la fuente. pero ya lo limpie.

  • YO - 03 septiembre, 2017

    el audio tiene publicidad al minuto 5 aprox

    • dpelis

      Administrador
      - 03 septiembre, 2017

      ya la vio completa. solo ahi tiene?

      • YO - 03 septiembre, 2017

        si solo ahi tiene xD

        • dpelis

          Administrador
          - 03 septiembre, 2017

          subiendo. listo en 10 minutos. ya lo limpie

          • YO - 03 septiembre, 2017

            ME PUEDES PASAR SOLO EL AUDIO PORFAVOR U.U PARA NO BAJARLO DE NUEVO

            • dpelis

              Administrador
              - 03 septiembre, 2017

              claro. escribame a la fanpage cinemaniahd.