Gru 3. Mi villano favorito (2017) 3D Half-OU Latino Ingles

857 vistas
1 estrella2 estrellas3 estrellas4 estrellas5 estrellas (Ninguna valoración todavía)
Cargando…

Información de Gru 3. Mi villano favorito (2017) 3D Half-OU Latino Ingles

Datos de la película

  • Calidad: Full 1080p
  • Audio: Español Latino DTS-HD Master 7.1 BLURAY - Ingles DTS 5.1 BLURAY
  • Subtitulos: Español Latino PGS - Ingles PGS
  • Resolución: 4,92 GB
  • Formato: MKV
  • Codec: H.264
  • Encoder: Dpelis1
  • Mediainfo: Ver Ver
  • Video
    ID                                       : 1
    Format                                   : AVC
    Format/Info                              : Advanced Video Codec
    Format profile                           : [email protected]
    Format settings, CABAC                   : Yes
    Format settings, RefFrames               : 4 frames
    Codec ID                                 : V_MPEG4/ISO/AVC
    Duration                                 : 1 h 29 min
    Bit rate                                 : 4 280 kb/s
    Width                                    : 1 920 pixels
    Height                                   : 1 080 pixels
    Display aspect ratio                     : 16:9
    Frame rate mode                          : Constant
    Frame rate                               : 23.976 (24000/1001) FPS
    Color space                              : YUV
    Chroma subsampling                       : 4:2:0
    Bit depth                                : 8 bits
    Scan type                                : Progressive
    Bits/(Pixel*Frame)                       : 0.086
    Stream size                              : 2.68 GiB (54%)
    Writing library                          : x264 core 148 r2708 86b7198
    Encoding settings                        : cabac=1 / ref=4 / deblock=1:0:0 / analyse=0x3:0x133 / me=esa / subme=10 / psy=1 / psy_rd=1.00:0.00 / mixed_ref=1 / me_range=24 / chroma_me=1 / trellis=2 / 8x8dct=1 / cqm=0 / deadzone=21,11 / fast_pskip=1 / chroma_qp_offset=-2 / threads=12 / lookahead_threads=2 / sliced_threads=0 / nr=0 / decimate=1 / interlaced=0 / bluray_compat=0 / constrained_intra=0 / bframes=8 / b_pyramid=2 / b_adapt=2 / b_bias=0 / direct=3 / weightb=1 / open_gop=0 / weightp=2 / keyint=240 / keyint_min=24 / scenecut=40 / intra_refresh=0 / rc_lookahead=60 / rc=crf / mbtree=1 / crf=20.0 / qcomp=0.60 / qpmin=0 / qpmax=69 / qpstep=4 / vbv_maxrate=62500 / vbv_bufsize=78125 / crf_max=0.0 / nal_hrd=none / filler=0 / ip_ratio=1.40 / aq=1:1.00
    Default                                  : Yes
    Forced                                   : No
    Color range                              : Limited
    Color primaries                          : BT.709
    Transfer characteristics                 : BT.709
    Matrix coefficients                      : BT.709

    Audio #1
    ID                                       : 2
    Format                                   : DTS
    Format/Info                              : Digital Theater Systems
    Format profile                           : HRA / Core
    Mode                                     : 16
    Format settings, Endianness              : Big
    Codec ID                                 : A_DTS
    Duration                                 : 1 h 29 min
    Bit rate mode                            : Constant
    Bit rate                                 : 2 046 kb/s / 1 509 kb/s
    Channel(s)                               : 8 channels / 6 channels
    Channel positions                        : Front: L C R, Side: L R, Back: L R, LFE / Front: L C R, Side: L R, LFE
    Sampling rate                            : 48.0 kHz
    Frame rate                               : 93.750 FPS (512 SPF)
    Bit depth                                : 24 bits
    Compression mode                         : Lossy
    Stream size                              : 1.28 GiB (26%)
    Language                                 : Spanish
    Default                                  : Yes
    Forced                                   : No

    Audio #2
    ID                                       : 3
    Format                                   : DTS
    Format/Info                              : Digital Theater Systems
    Mode                                     : 16
    Format settings, Endianness              : Big
    Codec ID                                 : A_DTS
    Duration                                 : 1 h 29 min
    Bit rate mode                            : Constant
    Bit rate                                 : 1 509 kb/s
    Channel(s)                               : 6 channels
    Channel positions                        : Front: L C R, Side: L R, LFE
    Sampling rate                            : 48.0 kHz
    Frame rate                               : 93.750 FPS (512 SPF)
    Bit depth                                : 24 bits
    Compression mode                         : Lossy
    Stream size                              : 968 MiB (19%)
    Language                                 : English
    Default                                  : No
    Forced                                   : No

    Text #1
    ID                                       : 4
    Format                                   : PGS
    Muxing mode                              : zlib
    Codec ID                                 : S_HDMV/PGS
    Codec ID/Info                            : Picture based subtitle format used on BDs/HD-DVDs
    Duration                                 : 1 h 28 min
    Bit rate                                 : 8 926 b/s
    Count of elements                        : 2154
    Stream size                              : 5.66 MiB (0%)
    Language                                 : Spanish
    Default                                  : Yes
    Forced                                   : No

    Text #2
    ID                                       : 5
    Format                                   : PGS
    Muxing mode                              : zlib
    Codec ID                                 : S_HDMV/PGS
    Codec ID/Info                            : Picture based subtitle format used on BDs/HD-DVDs
    Duration                                 : 1 h 21 min
    Bit rate                                 : 15.1 kb/s
    Count of elements                        : 3054
    Stream size                              : 8.82 MiB (0%)
    Language                                 : English
    Default                                  : No
    Forced                                   : No

    Menu
    00:00:00.000                             : en:(01)00:00:00:000
    00:03:06.103                             : en:(02)00:03:06:102
    00:07:58.019                             : en:(03)00:07:57:977
    00:11:12.839                             : en:(04)00:11:12:838
    00:16:15.766                             : en:(05)00:16:15:766
    00:20:07.498                             : en:(06)00:20:07:497
    00:24:07.988                             : en:(07)00:24:07:988
    00:28:57.110                             : en:(08)00:28:57:068
    00:32:55.348                             : en:(09)00:32:55:348
    00:39:01.840                             : en:(10)00:39:01:839
    00:42:44.187                             : en:(11)00:42:44:186
    00:46:47.179                             : en:(12)00:46:47:179
    00:50:55.636                             : en:(13)00:50:55:635
    00:56:12.077                             : en:(14)00:56:12:077
    01:00:02.265                             : en:(15)01:00:02:265
    01:05:41.229                             : en:(16)01:05:41:228
    01:10:14.544                             : en:(17)01:10:14:543
    01:14:33.761                             : en:(18)01:14:33:760
    01:19:29.723                             : en:(19)01:19:29:723
    01:21:56.995                             : en:(20)01:21:56:995

  • Peso: 4,92 GB

Sinopsis

Descargar gratis Gru 3. Mi villano favorito (2017) 3D Half-OU Latino Ingles. A Gru lo han despedido. Se ha quedado sin trabajo porque ha dejado escapar al supervillano Balthazar Bratt, estrella infantil de los años 80 que con la llegada de la pubertad lo perdió todo y ha estado creando el caos en todo el planeta. Además, Gru va a conocer a su hermano gemelo Dru y tendrá que decidir si está listo para continuar la tradición familiar de dedicarse al crimen, y unirse a el para llevar a cabo un último golpe. Aunque ha dejado esa vida atrás… ¿volverá a convertirse Gru en un villano?

Ficha técnica

Imágenes, Capturas de la película

Video trailer de la película

Enlaces de descarga

Descargar Gru 3. Mi villano favorito (2017) 3D Half-OU Latino Ingles
Descargar

dpeliculas

Aportes de DPeliculasHDmega la pass es:dpeliculashdmega.org Aportes de CinemaniaHD la pass es:cinemaniahdd.com
Guardado en : Acción , Animación , Aventura , Comedia , Familia

PelícuDelas relacionadas

  • La vida de Pi (2012) 2160p 4K UHD Latino-Ingles

    2012
    La vida de Pi (2012) 2160p 4K UHD Latino-Ingles

    0.0 2h 7m 2012

    Descargar gratis La vida de Pi (2012) 2160p 4K UHD Latino-Ingles.  Pi Patel es un muchacho cuyo padre...

    Director: Ang Lee

    Género: 4K HDR

    Actores: Wang Bo-Chieh

  • Arrow (2017) Temporada 6 WEBDL 1080p Subtitulada

    2012
    Arrow (2017) Temporada 6 WEBDL 1080p Subtitulada

    0.0 0h 42m 2012

    Con el futuro del equipo pendiendo de un hilo, Arrow le dio una nueva definición a la frase “explotar...

    Director: Marc Guggenheim

    Género: Acción

    Actores: Willa Holland

  • The Meyerowitz Stories (2017) 1080p Latino

    2017
    The Meyerowitz Stories (2017) 1080p Latino

    0.0 1 h 52 min 2017

    Los tres hijos, ya adultos, de un arisco artista neoyorquino se enfrentan a la difícil relación que...

    Director: Noah Baumbach

    Género: Comedia

    Actores: Victor Cruz

  • En este rincón del mundo (2016) 1080p Latino

    2016
    En este rincón del mundo (2016) 1080p Latino

    0.0 2h 10m 2016

    La historia narra la vida de una familia residente en la ciudad de Kure (Hiroshima) durante la II Guerra...

    Director: Sunao Katabuchi

    Género: Animación

    Actores: Yoshimasa Hosoya

Comentarios 2
  • alonso - 06 octubre, 2017

    que buen aporte! muchas gracias 😀 me gustaria saber si tienen alguna otra pagina o colaboradores que suban DVD’S

    • dpelis

      Administrador
      - 06 octubre, 2017

      no estimado