Good Kids (2016) 1080p Latino

2.211 vistas
1 estrella2 estrellas3 estrellas4 estrellas5 estrellas (2 votos, promedio: 5,00 de 5)
Cargando…

Información de Good Kids (2016) 1080p Latino

Datos de la película

  • Calidad: 1080p
  • Audio: Español Latino AC3 5.1 DVD - Ingles AC3 5.1 BLURAY
  • Subtitulos: Español Latino SRT - Ingles SRT
  • Resolución: 1920x804p
  • Formato: MKV
  • Codec: H.264
  • Encoder: Dpelis
  • Mediainfo: Ver Ver
  • Good.Kids.2016.1080p.Latino.mkv
    Format                      : Matroska
    Format version              : Version 4 / Version 2
    File size                   : 2.65 GiB
    Duration                    : 1 h 29 min
    Overall bit rate            : 4 241 kb/s
    Movie name                  : DPeliculasHDMega.ORG
    Encoded date                : UTC 2017-05-26 03:26:51 / UTC 2017-05-26T01:32:00Z
    Writing application         : mkvmerge v10.0.0 ('To Drown In You') 64bit
    Writing library             : libebml v1.3.4 + libmatroska v1.4.5 / Lavf57.7.2

    Video
    ID                          : 1
    Format                      : AVC
    Format/Info                 : Advanced Video Codec
    Format profile              : [email protected]
    Format settings, CABAC      : Yes
    Format settings, ReFrames   : 4 frames
    Codec ID                    : V_MPEG4/ISO/AVC
    Duration                    : 1 h 29 min
    Bit rate                    : 3 324 kb/s
    Nominal bit rate            : 3 500 kb/s
    Width                       : 1 920 pixels
    Height                      : 804 pixels
    Display aspect ratio        : 2.40:1
    Frame rate mode             : Constant
    Frame rate                  : 23.976 (24000/1001) FPS
    Color space                 : YUV
    Chroma subsampling          : 4:2:0
    Bit depth                   : 8 bits
    Scan type                   : Progressive
    Bits/(Pixel*Frame)          : 0.090
    Stream size                 : 2.08 GiB (78%)
    Writing library             : x264 core 148 r2708 86b7198
    Encoding settings           : cabac=1 / ref=3 / deblock=1:0:0 / analyse=0x3:0x113 / me=hex / subme=7 / psy=1 / psy_rd=1.00:0.00 / mixed_ref=1 / me_range=16 / chroma_me=1 / trellis=1 / 8x8dct=1 / cqm=0 / deadzone=21,11 / fast_pskip=1 / chroma_qp_offset=-2 / threads=25 / lookahead_threads=4 / sliced_threads=0 / nr=0 / decimate=1 / interlaced=0 / bluray_compat=0 / constrained_intra=0 / bframes=3 / b_pyramid=2 / b_adapt=1 / b_bias=0 / direct=1 / weightb=1 / open_gop=0 / weightp=2 / keyint=240 / keyint_min=24 / scenecut=40 / intra_refresh=0 / rc_lookahead=40 / rc=abr / mbtree=1 / bitrate=3500 / ratetol=1.0 / qcomp=0.60 / qpmin=0 / qpmax=69 / qpstep=4 / vbv_maxrate=62500 / vbv_bufsize=78125 / nal_hrd=none / filler=0 / ip_ratio=1.40 / aq=1:1.00
    Default                     : Yes
    Forced                      : No
    Color range                 : Limited
    Color primaries             : BT.709
    Transfer characteristics    : BT.709
    Matrix coefficients         : BT.709
    Statistics Tags Issue       : mkvmerge v10.0.0 ('To Drown In You') 64bit 2017-05-26 03:26:51 / mkvmerge v10.0.0 ('To Drown In You') 64bit 2017-05-26 03:26:51 / UTC 2017-05-26T01:32:00Z
    FromStats_BitRate           : 3407224
    FromStats_Duration          : 01:29:27.446000000
    FromStats_FrameCount        : 128690
    FromStats_StreamSize        : 2286011924

    Audio #1
    ID                          : 2
    Format                      : AC-3
    Format/Info                 : Audio Coding 3
    Format settings, Endianness : Big
    Codec ID                    : A_AC3
    Duration                    : 1 h 29 min
    Bit rate mode               : Constant
    Bit rate                    : 448 kb/s
    Channel(s)                  : 6 channels
    Channel positions           : Front: L C R, Side: L R, LFE
    Sampling rate               : 48.0 kHz
    Frame rate                  : 31.250 FPS (1536 spf)
    Bit depth                   : 16 bits
    Compression mode            : Lossy
    Delay relative to video     : -5 ms
    Stream size                 : 287 MiB (11%)
    Language                    : Spanish
    Service kind                : Complete Main
    Default                     : Yes
    Forced                      : No
    Statistics Tags Issue       : mkvmerge v10.0.0 ('To Drown In You') 64bit 2017-05-26 03:26:51 / mkvmerge v10.0.0 ('To Drown In You') 64bit 2017-05-26 03:26:51 / UTC 2017-05-26T01:32:00Z
    FromStats_BitRate           : 448000
    FromStats_Duration          : 01:29:28.640000000
    FromStats_FrameCount        : 167770
    FromStats_StreamSize        : 300643840

    Audio #2
    ID                          : 3
    Format                      : AC-3
    Format/Info                 : Audio Coding 3
    Format settings, Endianness : Big
    Codec ID                    : A_AC3
    Duration                    : 1 h 29 min
    Bit rate mode               : Constant
    Bit rate                    : 384 kb/s
    Channel(s)                  : 6 channels
    Channel positions           : Front: L C R, Side: L R, LFE
    Sampling rate               : 48.0 kHz
    Frame rate                  : 31.250 FPS (1536 spf)
    Bit depth                   : 16 bits
    Compression mode            : Lossy
    Delay relative to video     : -5 ms
    Stream size                 : 246 MiB (9%)
    Title                       : Surround
    Language                    : English
    Service kind                : Complete Main
    Default                     : No
    Forced                      : No
    Statistics Tags Issue       : mkvmerge v10.0.0 ('To Drown In You') 64bit 2017-05-26 03:26:51 / mkvmerge v10.0.0 ('To Drown In You') 64bit 2017-05-26 03:26:51 / UTC 2017-05-26T01:32:00Z
    FromStats_BitRate           : 384000
    FromStats_Duration          : 01:29:27.424000000
    FromStats_FrameCount        : 167732
    FromStats_StreamSize        : 257636352

    Text #1
    ID                          : 4
    Format                      : UTF-8
    Codec ID                    : S_TEXT/UTF8
    Codec ID/Info               : UTF-8 Plain Text
    Language                    : Spanish
    Default                     : No
    Forced                      : No
    Statistics Tags Issue       : mkvmerge v10.0.0 ('To Drown In You') 64bit 2017-05-26 03:26:51 / mkvmerge v10.0.0 ('To Drown In You') 64bit 2017-05-26 03:26:51 / UTC 2017-05-26T01:32:00Z
    FromStats_BitRate           : 61
    FromStats_Duration          : 01:25:02.731000000
    FromStats_FrameCount        : 1257
    FromStats_StreamSize        : 38938

    Text #2
    ID                          : 5
    Format                      : UTF-8
    Codec ID                    : S_TEXT/UTF8
    Codec ID/Info               : UTF-8 Plain Text
    Language                    : English
    Default                     : No
    Forced                      : No
    Statistics Tags Issue       : mkvmerge v10.0.0 ('To Drown In You') 64bit 2017-05-26 03:26:51 / mkvmerge v10.0.0 ('To Drown In You') 64bit 2017-05-26 03:26:51 / UTC 2017-05-26T01:32:00Z
    FromStats_BitRate           : 64
    FromStats_Duration          : 01:23:17.257000000
    FromStats_FrameCount        : 1263
    FromStats_StreamSize        : 40491

    Text #3
    ID                          : 6
    Format                      : UTF-8
    Codec ID                    : S_TEXT/UTF8
    Codec ID/Info               : UTF-8 Plain Text
    Language                    : Spanish
    Default                     : Yes
    Forced                      : No
    Statistics Tags Issue       : mkvmerge v10.0.0 ('To Drown In You') 64bit 2017-05-26 03:26:51 / mkvmerge v10.0.0 ('To Drown In You') 64bit 2017-05-26 03:26:51 / UTC 2017-05-26T01:32:00Z
    FromStats_BitRate           : 91
    FromStats_Duration          : 00:00:10.100000000
    FromStats_FrameCount        : 1
    FromStats_StreamSize        : 115

  • Peso: 2.65 GB

Sinopsis

Descargar Good Kids 1080p Latino, cuenta la historia de cuatro estudiantes de secundaria se dan cuenta que no han vivido a través de las experiencias clave de sus vidas para ser buenos hijos, decidieron reinventarse antes de ir a la universidad.

Ficha técnica

  • Titulo original: Good Kids
  • Fecha de lanzamiento: 21-10-2016 (United States of America)
  • Director: Chris McCoy
  • Género: Comedia
  • Puntuación: 5.0 2 votos
  • Duración:
    1h 29m

Imágenes, Capturas de la película

Video trailer de la película

Enlaces de descarga

Descargar Good Kids (2016) 1080p Latino
Descargar

dpeliculas

Aportes de DPeliculasHDmega la pass es:dpeliculashdmega.org Aportes de CinemaniaHD la pass es:cinemaniahdd.com
Guardado en : Comedia

PelícuDelas relacionadas

  • Desnudo (2017) Webdl 1080p Latino

    2017
    Desnudo (2017) Webdl 1080p Latino

    0.0 1h 36m 2017

    Descargar Naked hd latino. Es una pelicula de Netflix, tambien conocida en latinoamerica como Desnudo...

    Director: Michael Tiddes

    Género: Comedia

    Actores: Regina Hall

  • Empeliculados (2017) Webdl 1080p Latino

    2017
    Empeliculados (2017) Webdl 1080p Latino

    0.0 1h 35m 2017

    Descargar Empeliculados hd latino, es una pelicula colombiana. Jorge, un director de cine soñador con...

    Director: Diego Fernando Bustamante

    Género: Comedia

    Actores: Paula Castaño

  • Kung Fu Yoga (2017) Full 1080p Castellano

    2017
    Kung Fu Yoga (2017) Full 1080p Castellano

    0.0 2h 10m 2017

    Descargar Kung Fu Yoga HD una película China pero con doblaje Castellano, no sabemos si habra latino...

    Director: Stanley Tong

    Género: Acción

    Actores: Zhang Guoli

Comentarios 2
  • Jose - 12 Junio, 2017

    hola buenas muy buen a porte pero no puedo descomprimir ya probe con las 2 contraseñas que dan pero me da error no se si m,e podrian ayudar

    • dpelis

      Administrador
      - 12 Junio, 2017

      el problema es la version winrar, porfavor instalar la nueva version y full , descargar aqui