Ghost in the Shell (2017) 3D OU Full Latino

823 vistas
1 estrella2 estrellas3 estrellas4 estrellas5 estrellas (1 votos, promedio: 5,00 de 5)
Cargando…

Información de Ghost in the Shell (2017) 3D OU Full Latino

Datos de la película

  • Calidad: Full 1080p
  • Audio: Español Latino AC3 5.1 BLURAY - Ingles AC3 5.1 BLURAY
  • Subtitulos: Español Latino PGS - Ingles PGS
  • Resolución: 1920x1080p
  • Formato: MKV
  • Codec: H.264
  • Encoder: Dpelis
  • Mediainfo: Ver Ver
  • Ghost In The Shell (2017) 3D OU Full Latino.mkv
    Format                      : Matroska
    Format version              : Version 4 / Version 2
    File size                   : 7.69 GiB
    Duration                    : 1 h 46 min
    Overall bit rate            : 10.3 Mb/s
    Movie name                  : DPeliculasHDMega.ORG
    Encoded date                : UTC 2017-07-25 22:03:23
    Writing application         : mkvmerge v10.0.0 ('To Drown In You') 64bit
    Writing library             : libebml v1.3.4 + libmatroska v1.4.5

    Video
    ID                          : 1
    Format                      : AVC
    Format/Info                 : Advanced Video Codec
    Format profile              : [email protected]
    Format settings, CABAC      : Yes
    Format settings, ReFrames   : 2 frames
    Format settings, GOP        : M=3, N=24
    Codec ID                    : V_MPEG4/ISO/AVC
    Duration                    : 1 h 46 min
    Bit rate                    : 8 993 kb/s
    Width                       : 1 920 pixels
    Height                      : 1 080 pixels
    Display aspect ratio        : 16:9
    Frame rate mode             : Constant
    Frame rate                  : 23.976 (24000/1001) FPS
    Color space                 : YUV
    Chroma subsampling          : 4:2:0
    Bit depth                   : 8 bits
    Scan type                   : Progressive
    Bits/(Pixel*Frame)          : 0.181
    Stream size                 : 6.72 GiB (87%)
    Writing library             : x264 core 142
    Encoding settings           : cabac=1 / ref=1 / deblock=1:-1:-1 / analyse=0x3:0 / me=hex / subme=5 / psy=0 / mixed_ref=0 / me_range=16 / chroma_me=1 / trellis=0 / 8x8dct=1 / cqm=0 / deadzone=21,11 / fast_pskip=0 / chroma_qp_offset=0 / threads=8 / lookahead_threads=2 / sliced_threads=0 / nr=0 / decimate=1 / interlaced=0 / bluray_compat=0 / constrained_intra=0 / bframes=2 / b_pyramid=0 / b_adapt=1 / b_bias=0 / direct=1 / weightb=0 / open_gop=0 / weightp=0 / keyint=24 / keyint_min=13 / scenecut=40 / intra_refresh=0 / rc=crf / mbtree=0 / crf=20.0 / qcomp=0.60 / qpmin=0 / qpmax=69 / qpstep=4 / ip_ratio=1.40 / pb_ratio=1.30 / aq=1:1.00
    Default                     : Yes
    Forced                      : No
    Color range                 : Limited
    Color primaries             : BT.709
    Transfer characteristics    : BT.709
    Matrix coefficients         : BT.709

    Audio #1
    ID                          : 2
    Format                      : AC-3
    Format/Info                 : Audio Coding 3
    Format settings, Endianness : Big
    Codec ID                    : A_AC3
    Duration                    : 1 h 46 min
    Bit rate mode               : Constant
    Bit rate                    : 640 kb/s
    Channel(s)                  : 6 channels
    Channel positions           : Front: L C R, Side: L R, LFE
    Sampling rate               : 48.0 kHz
    Frame rate                  : 31.250 FPS (1536 spf)
    Bit depth                   : 16 bits
    Compression mode            : Lossy
    Stream size                 : 490 MiB (6%)
    Language                    : Spanish
    Service kind                : Complete Main
    Default                     : Yes
    Forced                      : No

    Audio #2
    ID                          : 3
    Format                      : AC-3
    Format/Info                 : Audio Coding 3
    Format settings, Endianness : Big
    Codec ID                    : A_AC3
    Duration                    : 1 h 46 min
    Bit rate mode               : Constant
    Bit rate                    : 640 kb/s
    Channel(s)                  : 6 channels
    Channel positions           : Front: L C R, Side: L R, LFE
    Sampling rate               : 48.0 kHz
    Frame rate                  : 31.250 FPS (1536 spf)
    Bit depth                   : 16 bits
    Compression mode            : Lossy
    Stream size                 : 489 MiB (6%)
    Language                    : English
    Service kind                : Complete Main
    Default                     : No
    Forced                      : No

    Text #1
    ID                          : 4
    Format                      : PGS
    Muxing mode                 : zlib
    Codec ID                    : S_HDMV/PGS
    Codec ID/Info               : Picture based subtitle format used on BDs/HD-DVDs
    Duration                    : 1 h 45 min
    Bit rate                    : 5 458 b/s
    Count of elements           : 1842
    Stream size                 : 4.11 MiB (0%)
    Language                    : Spanish
    Default                     : No
    Forced                      : No

    Text #2
    ID                          : 5
    Format                      : PGS
    Muxing mode                 : zlib
    Codec ID                    : S_HDMV/PGS
    Codec ID/Info               : Picture based subtitle format used on BDs/HD-DVDs
    Duration                    : 1 h 45 min
    Bit rate                    : 5 314 b/s
    Count of elements           : 1812
    Stream size                 : 4.00 MiB (0%)
    Language                    : Spanish
    Default                     : No
    Forced                      : No

    Text #3
    ID                          : 6
    Format                      : PGS
    Muxing mode                 : zlib
    Codec ID                    : S_HDMV/PGS
    Codec ID/Info               : Picture based subtitle format used on BDs/HD-DVDs
    Duration                    : 1 h 34 min
    Bit rate                    : 5 453 b/s
    Count of elements           : 1768
    Stream size                 : 3.70 MiB (0%)
    Language                    : English
    Default                     : No
    Forced                      : No

    Menu
    00:00:00.000                : en:(01)00:00:00:000
    00:08:09.322                : en:(02)00:08:09:322
    00:14:39.961                : en:(03)00:14:39:961
    00:21:26.492                : en:(04)00:21:26:492
    00:28:02.681                : en:(05)00:28:02:681
    00:34:13.217                : en:(06)00:34:13:217
    00:39:27.614                : en:(07)00:39:27:614
    00:43:57.800                : en:(08)00:43:57:800
    00:51:49.815                : en:(09)00:51:49:815
    00:55:19.065                : en:(10)00:55:19:065
    01:01:06.871                : en:(11)01:01:06:871
    01:07:49.731                : en:(12)01:07:49:731
    01:14:36.970                : en:(13)01:14:36:970
    01:20:31.743                : en:(14)01:20:31:743
    01:27:46.176                : en:(15)01:27:46:176
    01:33:41.407                : en:(16)01:33:41:407
    01:38:00.082                : en:(17)01:38:00:082
    01:46:56.451                : en:(18)01:46:56:451

  • Peso: 7.69 GB

Sinopsis

En un japón futurista la joven Motoko Kusanagi (Scarlett Johansson), (Scarlett Johansson), también conocido como el primer grupo de trabajo de élite Look “Major” Killian, sección 9, que tiene como objetivo luchar contra el ciberterrorismo y los crímenes tecnológicos. A cargo de esta unidad de operaciones secretas se encuentra Aramaki (Takeshi Kitano), y destaca Batou (Pilou Asbæk), un exmilitar considerado uno del grupo de los agentes más locos. Pero después de una misión peligrosa, el cuerpo de Kusanagi está dañado, se someten a cirugía para trasplantar su cerebro en un cuerpo robótico. Este nuevo cuerpo artificial le permitirá ser capaz de realizar explotaciones sobrehumanas especialmente necesarias para su trabajo … Basado en la aclamada saga de ciencia ficción del epónimo.

Ficha técnica

Imágenes, Capturas de la película

Video trailer de la película

Enlaces de descarga

Descargar Ghost in the Shell (2017) 3D OU Full Latino
Descargar

dpeliculas

Aportes de DPeliculasHDmega la pass es:dpeliculashdmega.org Aportes de CinemaniaHD la pass es:cinemaniahdd.com

PelícuDelas relacionadas

  • Born in China (2016) 1080p Latino

    2017
    Born in China (2016) 1080p Latino

    0.0 1h 19m 2017

    Documental de la filial de Walt Disney Disneynature que recoge la vida salvaje y la belleza natural de...

    Director: Lu Chuan

    Género: Documental

    Actores: Zhou Xun

  • Operation Mekong (2016) 1080p Latino

    2016
    Operation Mekong (2016) 1080p Latino

    5.0 2h 4m 2016

    A lo largo del río Mekong se encuentra el llamado triángulo dorado, uno de los mayores proveedores...

    Director: Dante Lam

    Género: Acción

    Actores: Zhao Jian

  • Collide (2016) 1080p Latino

    2016
    Collide (2016) 1080p Latino

    0.0 1h 39m 2016

    Descargar Persecucion al limite hd latino. Tambien conocida como Collide 1080p Cuando uno de los atracos...

    Director: Eran Creevy

    Género: Acción

    Actores: Nicholas Hoult

  • Gold la gran estafa (2016) 1080p Latino

    2016
    Gold la gran estafa (2016) 1080p Latino

    0.0 2h 1m 2016

    Descarga Gold hd latino, también conocida La gran estafa 1080p latino Kenny Wells es un fracasado hombre...

    Director: Stephen Gaghan

    Género: Aventura

    Actores: Yothin Mapobphun

Comentarios 10
  • ricardo volador - 04 Agosto, 2017

    gracias por el aporte pero google drive dice que ya no esta disponible. podrian re-subirlo o usar otro servicio de descargas? gracias

    • dpelis

      Administrador
      - 04 Agosto, 2017

      ya funciona usar mipony para proximos aporte agregare mega

  • Victor - 04 Agosto, 2017

    Hola muchas gracias por el aporte pero esto de subir a google drive luego de tantas descargas ya no deja bajar mas

    http://i.imgur.com/RrA0xUe.jpg

    ahi esta lo que salta cuando intento bajar y asi espere dias no deja de salir

    • dpelis

      Administrador
      - 04 Agosto, 2017

      ya funciona usar mipony para proximos aporte agregare mega

  • Nicolas - 27 Julio, 2017

    Muchas gracias por todos los aportes! quería saber si va a estar esta pelicula en MEGA? porque es la primera vez que desde google drive me salta un error porque muchos usuarios la han descargado. Gracias!

  • Dario - 27 Julio, 2017

    Gracias para cargar peliculas 3D en OU y de tamaño (bitrate) perfecto.

  • kazabobo - 26 Julio, 2017

    Imposible descargar. No hay anuncios donde hacer click

    • dpelis

      Administrador
      - 26 Julio, 2017

      dejeme captura para ver el problema. porfavor saludos

      • Kazabobo - 26 Julio, 2017

        No me deja pegar captura aca. como hago?

        • dpelis

          Administrador
          - 27 Julio, 2017

          suba alguna servidor free. imgur.com