Ghost in the Shell (2017) 1080p Latino

4.991 vistas
1 estrella2 estrellas3 estrellas4 estrellas5 estrellas (Ninguna valoración todavía)
Cargando…

Información de Ghost in the Shell (2017) 1080p Latino

Datos de la película

  • Calidad: 1080p
  • Audio: Español Latino AC3 5.1 BLURAY - Ingles AC3 5.1 BLURAY
  • Subtitulos: Español Latino SRT - Ingles SRT
  • Resolución: 1920x1080
  • Formato: MKV
  • Codec: H.264
  • Encoder: Dpelis
  • Mediainfo: Ver Ver
  • Ghost in the shell(2017) 1080p Latino.mkv
    Format                      : Matroska
    Format version              : Version 4 / Version 2
    File size                   : 3.17 GiB
    Duration                    : 1 h 46 min
    Overall bit rate            : 4 247 kb/s
    Movie name                  : DPeliculasHDMega.ORG
    Encoded date                : UTC 2017-07-12 22:02:48 / UTC 2017-07-12T20:14:43Z
    Writing application         : mkvmerge v10.0.0 ('To Drown In You') 64bit
    Writing library             : libebml v1.3.4 + libmatroska v1.4.5 / Lavf57.7.2

    Video
    ID                          : 1
    Format                      : AVC
    Format/Info                 : Advanced Video Codec
    Format profile              : [email protected]
    Format settings, CABAC      : Yes
    Format settings, ReFrames   : 4 frames
    Codec ID                    : V_MPEG4/ISO/AVC
    Duration                    : 1 h 46 min
    Bit rate                    : 3 500 kb/s
    Width                       : 1 920 pixels
    Height                      : 1 080 pixels
    Display aspect ratio        : 16:9
    Frame rate mode             : Constant
    Frame rate                  : 23.976 (24000/1001) FPS
    Color space                 : YUV
    Chroma subsampling          : 4:2:0
    Bit depth                   : 8 bits
    Scan type                   : Progressive
    Bits/(Pixel*Frame)          : 0.070
    Stream size                 : 2.54 GiB (80%)
    Writing library             : x264 core 148 r2708 86b7198
    Encoding settings           : cabac=1 / ref=4 / deblock=1:0:0 / analyse=0x3:0x113 / me=umh / subme=8 / psy=1 / psy_rd=1.00:0.00 / mixed_ref=1 / me_range=16 / chroma_me=1 / trellis=1 / 8x8dct=1 / cqm=0 / deadzone=21,11 / fast_pskip=1 / chroma_qp_offset=-2 / threads=12 / lookahead_threads=2 / sliced_threads=0 / nr=0 / decimate=1 / interlaced=0 / bluray_compat=0 / constrained_intra=0 / bframes=3 / b_pyramid=2 / b_adapt=2 / b_bias=0 / direct=3 / weightb=1 / open_gop=0 / weightp=2 / keyint=240 / keyint_min=24 / scenecut=40 / intra_refresh=0 / rc_lookahead=50 / rc=abr / mbtree=1 / bitrate=3500 / ratetol=1.0 / qcomp=0.60 / qpmin=0 / qpmax=69 / qpstep=4 / vbv_maxrate=62500 / vbv_bufsize=78125 / nal_hrd=none / filler=0 / ip_ratio=1.40 / aq=1:1.00
    Default                     : Yes
    Forced                      : No
    Color range                 : Limited
    Color primaries             : BT.709
    Transfer characteristics    : BT.709
    Matrix coefficients         : BT.709
    Statistics Tags Issue       : mkvmerge v10.0.0 ('To Drown In You') 64bit 2017-07-12 22:02:48 / mkvmerge v10.0.0 ('To Drown In You') 64bit 2017-07-12 22:02:48 / UTC 2017-07-12T20:14:43Z
    FromStats_BitRate           : 3476658
    FromStats_Duration          : 01:46:56.661000000
    FromStats_FrameCount        : 153846
    FromStats_StreamSize        : 2788567674

    Audio #1
    ID                          : 2
    Format                      : AC-3
    Format/Info                 : Audio Coding 3
    Mode                        : Dolby Digital
    Format settings, Endianness : Big
    Codec ID                    : A_AC3
    Duration                    : 1 h 46 min
    Bit rate mode               : Constant
    Bit rate                    : 384 kb/s
    Channel(s)                  : 2 channels
    Channel positions           : Front: L R
    Sampling rate               : 48.0 kHz
    Frame rate                  : 31.250 FPS (1536 spf)
    Bit depth                   : 16 bits
    Compression mode            : Lossy
    Delay relative to video     : -5 ms
    Stream size                 : 294 MiB (9%)
    Title                       : Stereo
    Language                    : English
    Service kind                : Complete Main
    Default                     : No
    Forced                      : No
    Statistics Tags Issue       : mkvmerge v10.0.0 ('To Drown In You') 64bit 2017-07-12 22:02:48 / mkvmerge v10.0.0 ('To Drown In You') 64bit 2017-07-12 22:02:48 / UTC 2017-07-12T20:14:43Z
    FromStats_BitRate           : 384000
    FromStats_Duration          : 01:46:56.672000000
    FromStats_FrameCount        : 200521
    FromStats_StreamSize        : 308000256

    Audio #2
    ID                          : 3
    Format                      : AC-3
    Format/Info                 : Audio Coding 3
    Format settings, Endianness : Big
    Codec ID                    : A_AC3
    Duration                    : 1 h 46 min
    Bit rate mode               : Constant
    Bit rate                    : 384 kb/s
    Channel(s)                  : 6 channels
    Channel positions           : Front: L C R, Side: L R, LFE
    Sampling rate               : 48.0 kHz
    Frame rate                  : 31.250 FPS (1536 spf)
    Bit depth                   : 16 bits
    Compression mode            : Lossy
    Delay relative to video     : -5 ms
    Stream size                 : 294 MiB (9%)
    Language                    : Spanish
    Service kind                : Complete Main
    Default                     : Yes
    Forced                      : No
    Statistics Tags Issue       : mkvmerge v10.0.0 ('To Drown In You') 64bit 2017-07-12 22:02:48 / mkvmerge v10.0.0 ('To Drown In You') 64bit 2017-07-12 22:02:48 / UTC 2017-07-12T20:14:43Z
    FromStats_BitRate           : 384000
    FromStats_Duration          : 01:46:56.736000000
    FromStats_FrameCount        : 200523
    FromStats_StreamSize        : 308003328

    Text #1
    ID                          : 4
    Format                      : UTF-8
    Codec ID                    : S_TEXT/UTF8
    Codec ID/Info               : UTF-8 Plain Text
    Language                    : Spanish
    Default                     : No
    Forced                      : No
    Statistics Tags Issue       : mkvmerge v10.0.0 ('To Drown In You') 64bit 2017-07-12 22:02:48 / mkvmerge v10.0.0 ('To Drown In You') 64bit 2017-07-12 22:02:48 / UTC 2017-07-12T20:14:43Z
    FromStats_BitRate           : 36
    FromStats_Duration          : 01:36:08.060000000
    FromStats_FrameCount        : 904
    FromStats_StreamSize        : 26536

    Text #2
    ID                          : 5
    Format                      : UTF-8
    Codec ID                    : S_TEXT/UTF8
    Codec ID/Info               : UTF-8 Plain Text
    Title                       : FORZADOS
    Language                    : Spanish
    Default                     : Yes
    Forced                      : No
    Statistics Tags Issue       : mkvmerge v10.0.0 ('To Drown In You') 64bit 2017-07-12 22:02:48 / mkvmerge v10.0.0 ('To Drown In You') 64bit 2017-07-12 22:02:48 / UTC 2017-07-12T20:14:43Z
    FromStats_BitRate           : 3
    FromStats_Duration          : 01:36:07.978000000
    FromStats_FrameCount        : 71
    FromStats_StreamSize        : 2227

    Text #3
    ID                          : 6
    Format                      : UTF-8
    Codec ID                    : S_TEXT/UTF8
    Codec ID/Info               : UTF-8 Plain Text
    Language                    : English
    Default                     : No
    Forced                      : No
    Statistics Tags Issue       : mkvmerge v10.0.0 ('To Drown In You') 64bit 2017-07-12 22:02:48 / mkvmerge v10.0.0 ('To Drown In You') 64bit 2017-07-12 22:02:48 / UTC 2017-07-12T20:14:43Z
    FromStats_BitRate           : 32
    FromStats_Duration          : 01:34:54.670000000
    FromStats_FrameCount        : 905
    FromStats_StreamSize        : 23474

    Menu
    00:00:00.000                : :00:00:00.000
    00:08:09.406                : :00:08:09.322
    00:14:39.962                : :00:14:39.962
    00:21:26.535                : :00:21:26.494
    00:28:02.681                : :00:28:02.681
    00:34:13.218                : :00:34:13.218
    00:39:27.615                : :00:39:27.615
    00:43:57.802                : :00:43:57.802
    00:51:49.857                : :00:51:49.815
    00:55:19.066                : :00:55:19.066
    01:01:06.913                : :01:01:06.872
    01:07:49.732                : :01:07:49.732
    01:14:36.973                : :01:14:36.972
    01:20:31.744                : :01:20:31.744
    01:27:46.178                : :01:27:46.178
    01:33:41.407                : :01:33:41.407
    01:38:00.124                : :01:38:00.083

  • Peso: 3.17 GB

Sinopsis

Descargar Gratis Ghost in the Shell HD Latino Nueva versión de la película del 1995, que nos sitúa en un Japón del futuro. Allí, nos encontramos con una cíborg atormentada por dudas existenciales. Su principal duda se centra en el “ghost”, es decir, el elemento que define aquello que conocemos como conciencia o alma. Cree que solamente sabiendo con exactitud qué es el ghost podrá ser capaz de darle sentido a su propia existencia.

Ficha técnica

Imágenes, Capturas de la película

Video trailer de la película

Enlaces de descarga

Descargar Ghost in the Shell (2017) 1080p Latino
Descargar

dpeliculas

Aportes de DPeliculasHDmega la pass es:dpeliculashdmega.org Aportes de CinemaniaHD la pass es:cinemaniahdd.com

PelícuDelas relacionadas

  • La guerra del planeta de los simios (2017) Full 1080p Latino

    2017
    La guerra del planeta de los simios (2017) Full 1080p Latino

    5.0 2 h 20 min 2017

    César (Andy Serkis) jura que no comenzó la guerra. Pero él y su nación de simios genéticamente evolucionados...

    Director: Matt Reeves

    Género: Ciencia ficción

    Actores: Woody Harrelson

  • Annabelle: Creation (2017) Full 1080p Latino

    2017
    Annabelle: Creation (2017) Full 1080p Latino

    4.5 1 h 49 min 2017

    Década de los 50. Algunos años después de que Samuel Mullins (Anthony LaPaglia), un fabricante de...

    Director: Jan McWilliams

    Género: Estrenos

    Actores: Ward Horton

  • Llega de noche (2017) Full 1080p Latino

    2017
    Llega de noche (2017) Full 1080p Latino

    1.0 1 h 31 min 2017

    Paul es un padre de familia (Joel Edgerton) que vive junto a su Sarah (Carmen Ejogo) y su hijo adolescente...

    Director: Trey Edward Shults

    Género: Misterio

    Actores: Riley Keough

  • Money (2016) 1080p latino

    2016
    Money (2016) 1080p latino

    0.0 1h 26m 2016

    Dos ricos hombres de negocios están a punto de llevarse 5 millones de dólares, dinero malversado que...

    Director: Martín Rosete

    Género: Crimen

    Actores: Lucía Guerrero

Comentarios 9
  • Carlos - 28 julio, 2017

    Gracias por el aporte…. pero sabes porque el audio Latino es muy bajo en relacion al audio Ingles???

    • dpelis

      Administrador
      - 31 julio, 2017

      el audio latino no tiene la misma fuerza que el ingles. siempre varia

  • Jhefferson - 13 julio, 2017

    Gracias por el aporte amigos esperando la plateada

  • Carlos Jair - 13 julio, 2017

    gracias por subirlo en google drive, es mas rapido 😀

  • Frank - 06 julio, 2017

    No hay para descargarlo por mega? subanlo al mega porfa

    • dpelis

      Administrador
      - 06 julio, 2017

      use google drive

      • Sam - 13 julio, 2017

        Si es mejor.
        Mega cada 2gb descargados me hace esperar 5hs y a veces va lento en cambio Google Drive me viene bajando todo a máxima velocidad.

      • diego - 14 julio, 2017

        hola yo también pregunto por si ya no van a subir mas a mega a pesar de que ese servidor es un fastidio porque limita la descarga pero al menos se podía bajar, en cambio googledrive la descarga nunca termina, uso jdownloader y la descarga comienza y al cabo rato se reinicia de nuevo y siempre pasa eso, no se porque pero así nunca la descarga se termina

        • dpelis

          Administrador
          - 14 julio, 2017

          el problema q tan nos afecta. sube relentisimo, y es un dolor de cabeza estar esperando q se suban, ademas mega, siempre veo comentarios q los rar danados que los resuba. y todo porq bajan de mega. de google drive prefiero usa mypony