Free Fire (2017) Full 1080p Castellano

1.147 vistas
1 estrella2 estrellas3 estrellas4 estrellas5 estrellas (Ninguna valoración todavía)
Cargando…

Información de Free Fire (2017) Full 1080p Castellano

Datos de la película

  • Calidad:
  • Audio: Español Castellano DTS 5.1 BLURAY - Ingles DTS 5.1 BLURAY
  • Subtitulos: Español PGS - Ingles PGS
  • Resolución: 1920x1080p
  • Formato: MKV
  • Codec: H.264
  • Encoder: Dpelis
  • Mediainfo: Ver Ver
  • Free Fire (2017) Full 1080p Castellano.mkv
    Format                      : Matroska
    Format version              : Version 4 / Version 2
    File size                   : 3.95 GiB
    Duration                    : 1 h 30 min
    Overall bit rate            : 6 260 kb/s
    Movie name                  : DPeliculasHDMega.ORG
    Encoded date                : UTC 2017-09-07 03:54:45 / UTC 2017-09-07T00:26:30Z
    Writing application         : mkvmerge v10.0.0 ('To Drown In You') 64bit
    Writing library             : libebml v1.3.4 + libmatroska v1.4.5 / Lavf57.7.2

    Video
    ID                          : 1
    Format                      : AVC
    Format/Info                 : Advanced Video Codec
    Format profile              : [email protected]
    Format settings, CABAC      : Yes
    Format settings, ReFrames   : 4 frames
    Codec ID                    : V_MPEG4/ISO/AVC
    Duration                    : 1 h 30 min
    Bit rate                    : 3 118 kb/s
    Width                       : 1 920 pixels
    Height                      : 1 080 pixels
    Display aspect ratio        : 16:9
    Frame rate mode             : Constant
    Frame rate                  : 23.976 (24000/1001) FPS
    Color space                 : YUV
    Chroma subsampling          : 4:2:0
    Bit depth                   : 8 bits
    Scan type                   : Progressive
    Bits/(Pixel*Frame)          : 0.063
    Stream size                 : 1.97 GiB (50%)
    Writing library             : x264 core 148 r2708 86b7198
    Encoding settings           : cabac=1 / ref=4 / deblock=1:0:0 / analyse=0x3:0x133 / me=esa / subme=10 / psy=1 / psy_rd=1.00:0.00 / mixed_ref=1 / me_range=24 / chroma_me=1 / trellis=2 / 8x8dct=1 / cqm=0 / deadzone=21,11 / fast_pskip=1 / chroma_qp_offset=-2 / threads=34 / lookahead_threads=5 / sliced_threads=0 / nr=0 / decimate=1 / interlaced=0 / bluray_compat=0 / constrained_intra=0 / bframes=8 / b_pyramid=2 / b_adapt=2 / b_bias=0 / direct=3 / weightb=1 / open_gop=0 / weightp=2 / keyint=240 / keyint_min=24 / scenecut=40 / intra_refresh=0 / rc_lookahead=60 / rc=crf / mbtree=1 / crf=20.0 / qcomp=0.60 / qpmin=0 / qpmax=69 / qpstep=4 / vbv_maxrate=62500 / vbv_bufsize=78125 / crf_max=0.0 / nal_hrd=none / filler=0 / ip_ratio=1.40 / aq=1:1.00
    Default                     : Yes
    Forced                      : No
    Color range                 : Limited
    Color primaries             : BT.709
    Transfer characteristics    : BT.709
    Matrix coefficients         : BT.709
    Statistics Tags Issue       : mkvmerge v10.0.0 ('To Drown In You') 64bit 2017-09-07 03:54:45 / mkvmerge v10.0.0 ('To Drown In You') 64bit 2017-09-07 03:54:45 / UTC 2017-09-07T00:26:30Z
    FromStats_BitRate           : 3199416
    FromStats_Duration          : 01:30:18.372000000
    FromStats_FrameCount        : 129911
    FromStats_StreamSize        : 2166953786

    Audio #1
    ID                          : 2
    Format                      : DTS
    Format/Info                 : Digital Theater Systems
    Mode                        : 16
    Format settings, Endianness : Big
    Codec ID                    : A_DTS
    Duration                    : 1 h 30 min
    Bit rate mode               : Constant
    Bit rate                    : 1 509 kb/s
    Channel(s)                  : 6 channels
    Channel positions           : Front: L C R, Side: L R, LFE
    Sampling rate               : 48.0 kHz
    Frame rate                  : 93.750 FPS (512 spf)
    Bit depth                   : 16 bits
    Compression mode            : Lossy
    Stream size                 : 975 MiB (24%)
    Title                       : Surround
    Language                    : Spanish
    Default                     : Yes
    Forced                      : No
    Statistics Tags Issue       : mkvmerge v10.0.0 ('To Drown In You') 64bit 2017-09-07 03:54:45 / mkvmerge v10.0.0 ('To Drown In You') 64bit 2017-09-07 03:54:45 / UTC 2017-09-07T00:26:30Z
    FromStats_BitRate           : 1508999
    FromStats_Duration          : 01:30:18.411000000
    FromStats_FrameCount        : 507976
    FromStats_StreamSize        : 1022047712

    Audio #2
    ID                          : 3
    Format                      : DTS
    Format/Info                 : Digital Theater Systems
    Mode                        : 16
    Format settings, Endianness : Big
    Codec ID                    : A_DTS
    Duration                    : 1 h 30 min
    Bit rate mode               : Constant
    Bit rate                    : 1 509 kb/s
    Channel(s)                  : 6 channels
    Channel positions           : Front: L C R, Side: L R, LFE
    Sampling rate               : 48.0 kHz
    Frame rate                  : 93.750 FPS (512 spf)
    Bit depth                   : 16 bits
    Compression mode            : Lossy
    Delay relative to video     : 11 ms
    Stream size                 : 975 MiB (24%)
    Title                       : Surround
    Language                    : English
    Default                     : No
    Forced                      : No
    Statistics Tags Issue       : mkvmerge v10.0.0 ('To Drown In You') 64bit 2017-09-07 03:54:45 / mkvmerge v10.0.0 ('To Drown In You') 64bit 2017-09-07 03:54:45 / UTC 2017-09-07T00:26:30Z
    FromStats_BitRate           : 1509000
    FromStats_Duration          : 01:30:18.400000000
    FromStats_FrameCount        : 507975
    FromStats_StreamSize        : 1022045700

    Text #1
    ID                          : 4
    Format                      : PGS
    Muxing mode                 : zlib
    Codec ID                    : S_HDMV/PGS
    Codec ID/Info               : Picture based subtitle format used on BDs/HD-DVDs
    Language                    : Spanish
    Default                     : No
    Forced                      : No
    Statistics Tags Issue       : mkvmerge v10.0.0 ('To Drown In You') 64bit 2017-09-07 03:54:45 / mkvmerge v10.0.0 ('To Drown In You') 64bit 2017-09-07 03:54:45 / UTC 2017-09-07T00:26:30Z
    FromStats_BitRate           : 13014
    FromStats_Duration          : 01:28:47.406000000
    FromStats_FrameCount        : 2230
    FromStats_StreamSize        : 8666539

    Text #2
    ID                          : 5
    Format                      : PGS
    Muxing mode                 : zlib
    Codec ID                    : S_HDMV/PGS
    Codec ID/Info               : Picture based subtitle format used on BDs/HD-DVDs
    Language                    : Spanish
    Default                     : No
    Forced                      : No
    Statistics Tags Issue       : mkvmerge v10.0.0 ('To Drown In You') 64bit 2017-09-07 03:54:45 / mkvmerge v10.0.0 ('To Drown In You') 64bit 2017-09-07 03:54:45 / UTC 2017-09-07T00:26:30Z
    FromStats_BitRate           : 14132
    FromStats_Duration          : 01:28:56.123000000
    FromStats_FrameCount        : 2232
    FromStats_StreamSize        : 9426514

    Text #3
    ID                          : 6
    Format                      : PGS
    Muxing mode                 : zlib
    Codec ID                    : S_HDMV/PGS
    Codec ID/Info               : Picture based subtitle format used on BDs/HD-DVDs
    Language                    : English
    Default                     : No
    Forced                      : No
    Statistics Tags Issue       : mkvmerge v10.0.0 ('To Drown In You') 64bit 2017-09-07 03:54:45 / mkvmerge v10.0.0 ('To Drown In You') 64bit 2017-09-07 03:54:45 / UTC 2017-09-07T00:26:30Z
    FromStats_BitRate           : 13267
    FromStats_Duration          : 01:28:49.408000000
    FromStats_FrameCount        : 2224
    FromStats_StreamSize        : 8838220

    Menu
    00:00:00.000                : :Chapter 1
    00:04:44.034                : :Chapter 2
    00:08:32.053                : :Chapter 3
    00:16:55.389                : :Chapter 4
    00:26:12.071                : :Chapter 5
    00:32:49.509                : :Chapter 6
    00:41:06.756                : :Chapter 7
    00:50:06.629                : :Chapter 8
    00:57:09.176                : :Chapter 9
    01:01:17.674                : :Chapter 10
    01:05:41.146                : :Chapter 11
    01:09:01.095                : :Chapter 12
    01:12:31.681                : :Chapter 13
    01:15:17.847                : :Chapter 14
    01:19:09.828                : :Chapter 15
    01:22:30.612                : :Chapter 16

  • Peso: 3.95 GB

Sinopsis

Descargar Free Fire HD, por el momento no sabemos fecha de audio Latino Boston, año 1978. El líder de una banda que trafica con armas está realizando una venta a un par de irlandeses en un almacén abandonado. Pero el intercambio comienza a complicarse hasta extremos insospechados y no tardará en iniciarse un largo tiroteo.

Ficha técnica

Imágenes, Capturas de la película

Video trailer de la película

Enlaces de descarga

Descargar Free Fire (2017) Full 1080p Castellano
Descargar

dpeliculas

Aportes de DPeliculasHDmega la pass es:dpeliculashdmega.org Aportes de CinemaniaHD la pass es:cinemaniahdd.com

PelícuDelas relacionadas

  • La momia (2017) 3D OU 1080p Latino

    2017
    La momia (2017) 3D OU 1080p Latino

    0.0 1h 50m 2017

    Descargar gratis La momia (2017) 3D OU 1080p Latino. A pesar de estar enterrada en una tumba en lo más...

    Director: Jo Beckett

    Género: 3D Half OU

    Actores: Vera Chok

  • Dragon Ball Super (2015) Full 1080p Latino

    2015
    Dragon Ball Super (2015) Full 1080p Latino

    4.1 0h 24m 2015

    Si eres un seguidor de la serie Dragon ball super latino, entonces ahora puedes disfrutar de esta maravillosa...

    Director: Akira Toriyama

    Género: Anime

    Actores: Naoki Tatsuta

Comentarios 11
  • pablo - 13 septiembre, 2017

    en mi caso, mi tv tampoco toma los subtitulo PGS, busque en varias paginas los subtitulo en srt, pero no hay ninguno q ande con esta versión, todos están con un delay de 1 o 2 segundos, que versión es esta película para buscar mas específicamente?

  • gaaq08 - 09 septiembre, 2017

    no entiendo de que hablan (de los subtítulos) si yo los activo normal. ¿?

    • dpelis

      Administrador
      - 10 septiembre, 2017

      es que hay tv que no leen subtitulos PGS

  • DidierOlivaresLiberona - 08 septiembre, 2017

    Amigo no tienes los subtitulos??

    • dpelis

      Administrador
      - 08 septiembre, 2017

      estan en la pelicula,

      • Brian Guillen - 08 septiembre, 2017

        HOLA mi amigo, no trajo subtitulos ni dentro ni por fuera. saludos

        • dpelis

          Administrador
          - 08 septiembre, 2017

          no, porque no hay en la red

          • Brian - 09 septiembre, 2017

            Hola como te dije en el post de la pelicula security mi hermano baja de un solo clic y******* que esta ultima los trae por fuera a los subtiutlos, y tiene subtitulos esta pelicula. Como hacen entonces? Mira que te lo estoy preguntando bien ya que de ultima trato de conseguirlos, solo que lo que hay en sub divx no me calzaron para esta pelicula que subiste

            • dpelis

              Administrador
              - 10 septiembre, 2017

              xq no tengo todo el tiempo estimado. seguro solo lo pasan por el programa sub edit y lo montan, para hacer un subtitulo hay que revisar los errores porque al ripear hay palabras que no se entienden,

              • Brian - 10 septiembre, 2017

                Dale, pero lamentablemente las tv no lee sub psg, solo srt y en esa pagina nunca tienen errores en los subtitulos, alguna vez que otra por lo que me dijo mi hermano. Pero bueno disculpa la molestia