Advertise here

Felony (2013) 1080p Latino

922 vistas
1 estrella2 estrellas3 estrellas4 estrellas5 estrellas (1 votos, promedio: 1,00 de 5)
Cargando…

Información de Felony (2013) 1080p Latino

Datos de la película

  • Calidad: 1080p
  • Audio: Español Latino AC3 2.0 Capturado - Ingles AC3 5.1 BLURAY
  • Subtitulos: Español Latino SRT - Ingles SRT
  • Resolución: 1920x814p
  • Formato: MKV
  • Codec: H.264
  • Encoder: Dpelis
  • Mediainfo: Clic para Mostrar Datos Ver
  • Felony.2013.1080p.Latino.ingles.Dpelis.mkv
    Format                      : Matroska
    Format version              : Version 4 / Version 2
    File size                   : 2.98 GiB
    Duration                    : 1 h 45 min
    Overall bit rate            : 4 042 kb/s
    Movie name                  : DPeliculasHDMega.ORG
    Encoded date                : UTC 2017-05-21 03:17:35 / UTC 2017-05-21T00:34:34Z
    Writing application         : mkvmerge v10.0.0 ('To Drown In You') 64bit
    Writing library             : libebml v1.3.4 + libmatroska v1.4.5 / Lavf57.7.2

    Video
    ID                          : 1
    Format                      : AVC
    Format/Info                 : Advanced Video Codec
    Format profile              : [email protected]
    Format settings, CABAC      : Yes
    Format settings, ReFrames   : 4 frames
    Codec ID                    : V_MPEG4/ISO/AVC
    Duration                    : 1 h 45 min
    Bit rate                    : 3 321 kb/s
    Nominal bit rate            : 3 500 kb/s
    Width                       : 1 920 pixels
    Height                      : 816 pixels
    Display aspect ratio        : 2.35:1
    Frame rate mode             : Constant
    Frame rate                  : 23.976 (24000/1001) FPS
    Color space                 : YUV
    Chroma subsampling          : 4:2:0
    Bit depth                   : 8 bits
    Scan type                   : Progressive
    Bits/(Pixel*Frame)          : 0.088
    Stream size                 : 2.45 GiB (82%)
    Writing library             : x264 core 148 r2708 86b7198
    Encoding settings           : cabac=1 / ref=3 / deblock=1:0:0 / analyse=0x3:0x113 / me=hex / subme=7 / psy=1 / psy_rd=1.00:0.00 / mixed_ref=1 / me_range=16 / chroma_me=1 / trellis=1 / 8x8dct=1 / cqm=0 / deadzone=21,11 / fast_pskip=1 / chroma_qp_offset=-2 / threads=12 / lookahead_threads=2 / sliced_threads=0 / nr=0 / decimate=1 / interlaced=0 / bluray_compat=0 / constrained_intra=0 / bframes=3 / b_pyramid=2 / b_adapt=1 / b_bias=0 / direct=1 / weightb=1 / open_gop=0 / weightp=2 / keyint=240 / keyint_min=24 / scenecut=40 / intra_refresh=0 / rc_lookahead=40 / rc=abr / mbtree=1 / bitrate=3500 / ratetol=1.0 / qcomp=0.60 / qpmin=0 / qpmax=69 / qpstep=4 / vbv_maxrate=62500 / vbv_bufsize=78125 / nal_hrd=none / filler=0 / ip_ratio=1.40 / aq=1:1.00
    Default                     : Yes
    Forced                      : No
    Color range                 : Limited
    Color primaries             : BT.709
    Transfer characteristics    : BT.709
    Matrix coefficients         : BT.709
    Statistics Tags Issue       : mkvmerge v10.0.0 ('To Drown In You') 64bit 2017-05-21 03:17:35 / mkvmerge v10.0.0 ('To Drown In You') 64bit 2017-05-21 03:17:35 / UTC 2017-05-21T00:34:34Z
    FromStats_BitRate           : 3399859
    FromStats_Duration          : 01:45:27.738000000
    FromStats_FrameCount        : 151714
    FromStats_StreamSize        : 2689177878

    Audio #1
    ID                          : 2
    Format                      : AC-3
    Format/Info                 : Audio Coding 3
    Format settings, Endianness : Big
    Codec ID                    : A_AC3
    Duration                    : 1 h 45 min
    Bit rate mode               : Constant
    Bit rate                    : 256 kb/s
    Channel(s)                  : 2 channels
    Channel positions           : Front: L R
    Sampling rate               : 48.0 kHz
    Frame rate                  : 31.250 FPS (1536 spf)
    Bit depth                   : 16 bits
    Compression mode            : Lossy
    Delay relative to video     : 8 s 877 ms
    Stream size                 : 193 MiB (6%)
    Language                    : Spanish
    Service kind                : Complete Main
    Default                     : Yes
    Forced                      : No
    Statistics Tags Issue       : mkvmerge v10.0.0 ('To Drown In You') 64bit 2017-05-21 03:17:35 / mkvmerge v10.0.0 ('To Drown In You') 64bit 2017-05-21 03:17:35 / UTC 2017-05-21T00:34:34Z
    FromStats_BitRate           : 256000
    FromStats_Duration          : 01:45:18.656000000
    FromStats_FrameCount        : 197458
    FromStats_StreamSize        : 202196992

    Audio #2
    ID                          : 3
    Format                      : AC-3
    Format/Info                 : Audio Coding 3
    Format settings, Endianness : Big
    Codec ID                    : A_AC3
    Duration                    : 1 h 45 min
    Bit rate mode               : Constant
    Bit rate                    : 384 kb/s
    Channel(s)                  : 6 channels
    Channel positions           : Front: L C R, Side: L R, LFE
    Sampling rate               : 48.0 kHz
    Frame rate                  : 31.250 FPS (1536 spf)
    Bit depth                   : 16 bits
    Compression mode            : Lossy
    Delay relative to video     : -5 ms
    Stream size                 : 290 MiB (10%)
    Title                       : Surround
    Language                    : English
    Service kind                : Complete Main
    Default                     : No
    Forced                      : No
    Statistics Tags Issue       : mkvmerge v10.0.0 ('To Drown In You') 64bit 2017-05-21 03:17:35 / mkvmerge v10.0.0 ('To Drown In You') 64bit 2017-05-21 03:17:35 / UTC 2017-05-21T00:34:34Z
    FromStats_BitRate           : 384000
    FromStats_Duration          : 01:45:27.712000000
    FromStats_FrameCount        : 197741
    FromStats_StreamSize        : 303730176

    Text #1
    ID                          : 4
    Format                      : UTF-8
    Codec ID                    : S_TEXT/UTF8
    Codec ID/Info               : UTF-8 Plain Text
    Language                    : Spanish
    Default                     : No
    Forced                      : No
    Statistics Tags Issue       : mkvmerge v10.0.0 ('To Drown In You') 64bit 2017-05-21 03:17:35 / mkvmerge v10.0.0 ('To Drown In You') 64bit 2017-05-21 03:17:35 / UTC 2017-05-21T00:34:34Z
    FromStats_BitRate           : 55
    FromStats_Duration          : 01:44:46.705000000
    FromStats_FrameCount        : 1161
    FromStats_StreamSize        : 43260

    Text #2
    ID                          : 5
    Format                      : UTF-8
    Codec ID                    : S_TEXT/UTF8
    Codec ID/Info               : UTF-8 Plain Text
    Language                    : English
    Default                     : No
    Forced                      : No
    Statistics Tags Issue       : mkvmerge v10.0.0 ('To Drown In You') 64bit 2017-05-21 03:17:35 / mkvmerge v10.0.0 ('To Drown In You') 64bit 2017-05-21 03:17:35 / UTC 2017-05-21T00:34:34Z
    FromStats_BitRate           : 58
    FromStats_Duration          : 01:41:23.807000000
    FromStats_FrameCount        : 1247
    FromStats_StreamSize        : 44313

    Text #3
    ID                          : 6
    Format                      : UTF-8
    Codec ID                    : S_TEXT/UTF8
    Codec ID/Info               : UTF-8 Plain Text
    Language                    : Spanish
    Default                     : Yes
    Forced                      : No
    Statistics Tags Issue       : mkvmerge v10.0.0 ('To Drown In You') 64bit 2017-05-21 03:17:35 / mkvmerge v10.0.0 ('To Drown In You') 64bit 2017-05-21 03:17:35 / UTC 2017-05-21T00:34:34Z
    FromStats_BitRate           : 91
    FromStats_Duration          : 00:00:10.100000000
    FromStats_FrameCount        : 1
    FromStats_StreamSize        : 115

    Menu
    00:00:00.000                : :Chapter 1
    00:08:11.366                : :Chapter 2
    00:25:25.607                : :Chapter 3
    00:38:02.614                : :Chapter 4
    00:49:43.522                : :Chapter 5
    01:05:05.485                : :Chapter 6
    01:22:39.121                : :Chapter 7
    01:40:35.321                : :Chapter 8

  • Peso: 2.98 GB

Sinopsis

Descargar Felony 1080p Latino, tambien conocida como el rastro del delito, cuenta la historia de un hombre, un policía condecorado que regresa a casa en el coche después de una larga noche de beber y disfrutar del éxito de su equipo en un bar. Fatalidad es su camino y pasar sobre un joven ciclista. Trate de revivirlo sin éxito, y cuando llegan a sus compañeros para documentar el incidente, lo hará en su declaración. Algo que perseguirá a sus vidas de manera inimaginable.

Ficha técnica

  • Titulo original: Felony
  • Fecha de lanzamiento: 28-08-2014 (Australia, United States of America)
  • Director: Matthew Saville
  • Género: Crimen, Misterio, Suspense
  • Puntuación: 1.0 1 votos
  • Duración:
    1h 45m

Video trailer de la película

Enlaces de descarga

Descargar Felony (2013) 1080p Latino
Descargar

dpeliculas

Aportes de DPeliculasHDmega la pass es:dpeliculashdmega.org Aportes de CinemaniaHD la pass es:cinemaniahdd.com
Guardado en : Crimen , Misterio , Suspense

Películas relacionadas

  • The Bourne Ultimátum (2007) Full 1080p Latino

    2007
    The Bourne Ultimátum (2007) Full 1080p Latino

    5.0 1 h 55 min 2007

    Jason Bourne sigue investigando quién es y qué hay realmente detrás del programa secreto de la CIA...

    Director: Sue Mahoney

    Género: Acción

    Actores: William H. Burns

  • The Bourne Supremacy (2004) Full 1080p Latino

    2004
    The Bourne Supremacy (2004) Full 1080p Latino

    5.0 1h 48m 2004

    El pasado de Jason Bourne vuelve por él. En la segunda entrega de la saga de tres películas basadas...

    Director: Thorne Mutert

    Género: Acción

    Actores: Yevgeni Sitokhin

  • La ola (Bølgen) (2015) Full 1080p Latino

    2015
    La ola (Bølgen) (2015) Full 1080p Latino

    0.0 1 h 45 min 2015

    Nadie estaba realmente preparado para la caída del paso de montaña de Åkneset sobre el estrecho fiordo...

    Director: Roar Uthaug

    Género: Acción

    Actores: Tyra Holmen

  • Poseidón (2006) Full 1080p Latino

    2006
    Poseidón (2006) Full 1080p Latino

    3.0 1 h 38 min 2006

    En el Atlántico Norte, a bordo del lujoso trasatlántico Poseidón (20 pisos, 13 cubiertas) comienza...

    Director: Wolfgang Petersen

    Género: Acción

    Actores: Richard Dreyfuss

Comentarios 2
  • eduard cubillos - 21 mayo, 2017

    Hola muchas gracias por subirla tengo una pregunta la subiran en caratulas gris

    • dpelis

      Administrador
      - 22 mayo, 2017

      no estimado.