Rapido y Furiosos 8 (2017) 720p Latino

1.617 vistas
1 estrella2 estrellas3 estrellas4 estrellas5 estrellas (1 votos, promedio: 5,00 de 5)
Cargando…

Información de Rapido y Furiosos 8 (2017) 720p Latino

Datos de la película

  • Calidad: 720p
  • Audio: Español Latino AC3 5.1 DVD - Ingles AC3 5.1 BLURAY
  • Subtitulos: Español Latino SRT - Ingles SRT
  • Resolución: 1280x532p
  • Formato: MKV
  • Codec: H.264
  • Encoder: Dpelis
  • Mediainfo: Ver Ver
  • Rapido y Furisos 8 720p Latino.mkv
    Format                      : Matroska
    Format version              : Version 4 / Version 2
    File size                   : 2.33 GiB
    Duration                    : 2 h 15 min
    Overall bit rate            : 2 449 kb/s
    Movie name                  : DPeliculasHDMega.ORG
    Encoded date                : UTC 2017-06-29 01:30:14
    Writing application         : mkvmerge v10.0.0 ('To Drown In You') 64bit
    Writing library             : libebml v1.3.4 + libmatroska v1.4.5

    Video
    ID                          : 1
    Format                      : AVC
    Format/Info                 : Advanced Video Codec
    Format profile              : [email protected]
    Format settings, CABAC      : Yes
    Format settings, ReFrames   : 4 frames
    Codec ID                    : V_MPEG4/ISO/AVC
    Duration                    : 2 h 15 min
    Bit rate                    : 1 700 kb/s
    Width                       : 1 280 pixels
    Height                      : 536 pixels
    Display aspect ratio        : 2.40:1
    Frame rate mode             : Constant
    Frame rate                  : 23.976 (24000/1001) FPS
    Color space                 : YUV
    Chroma subsampling          : 4:2:0
    Bit depth                   : 8 bits
    Scan type                   : Progressive
    Bits/(Pixel*Frame)          : 0.103
    Stream size                 : 1.59 GiB (69%)
    Writing library             : x264 core 148 r2708 86b7198
    Encoding settings           : cabac=1 / ref=3 / deblock=1:0:0 / analyse=0x3:0x113 / me=hex / subme=7 / psy=1 / psy_rd=1.00:0.00 / mixed_ref=1 / me_range=16 / chroma_me=1 / trellis=1 / 8x8dct=1 / cqm=0 / deadzone=21,11 / fast_pskip=1 / chroma_qp_offset=-2 / threads=12 / lookahead_threads=2 / sliced_threads=0 / nr=0 / decimate=1 / interlaced=0 / bluray_compat=0 / constrained_intra=0 / bframes=3 / b_pyramid=2 / b_adapt=1 / b_bias=0 / direct=1 / weightb=1 / open_gop=0 / weightp=2 / keyint=240 / keyint_min=24 / scenecut=40 / intra_refresh=0 / rc_lookahead=40 / rc=abr / mbtree=1 / bitrate=1700 / ratetol=1.0 / qcomp=0.60 / qpmin=0 / qpmax=69 / qpstep=4 / vbv_maxrate=62500 / vbv_bufsize=78125 / nal_hrd=none / filler=0 / ip_ratio=1.40 / aq=1:1.00
    Default                     : Yes
    Forced                      : No
    Color range                 : Limited
    Color primaries             : BT.709
    Transfer characteristics    : BT.709
    Matrix coefficients         : BT.709

    Audio #1
    ID                          : 2
    Format                      : AC-3
    Format/Info                 : Audio Coding 3
    Format settings, Endianness : Big
    Codec ID                    : A_AC3
    Duration                    : 2 h 15 min
    Bit rate mode               : Constant
    Bit rate                    : 384 kb/s
    Channel(s)                  : 6 channels
    Channel positions           : Front: L C R, Side: L R, LFE
    Sampling rate               : 48.0 kHz
    Frame rate                  : 31.250 FPS (1536 spf)
    Bit depth                   : 16 bits
    Compression mode            : Lossy
    Delay relative to video     : -5 ms
    Stream size                 : 373 MiB (16%)
    Language                    : Spanish
    Service kind                : Complete Main
    Default                     : Yes
    Forced                      : No

    Audio #2
    ID                          : 3
    Format                      : AC-3
    Format/Info                 : Audio Coding 3
    Format settings, Endianness : Big
    Codec ID                    : A_AC3
    Duration                    : 2 h 15 min
    Bit rate mode               : Constant
    Bit rate                    : 384 kb/s
    Channel(s)                  : 6 channels
    Channel positions           : Front: L C R, Side: L R, LFE
    Sampling rate               : 48.0 kHz
    Frame rate                  : 31.250 FPS (1536 spf)
    Bit depth                   : 16 bits
    Compression mode            : Lossy
    Delay relative to video     : -5 ms
    Stream size                 : 373 MiB (16%)
    Language                    : English
    Service kind                : Complete Main
    Default                     : No
    Forced                      : No

    Text #1
    ID                          : 4
    Format                      : UTF-8
    Codec ID                    : S_TEXT/UTF8
    Codec ID/Info               : UTF-8 Plain Text
    Duration                    : 2 h 5 min
    Bit rate                    : 49 b/s
    Count of elements           : 1522
    Stream size                 : 45.8 KiB (0%)
    Language                    : Spanish
    Default                     : Yes
    Forced                      : No

    Text #2
    ID                          : 5
    Format                      : UTF-8
    Codec ID                    : S_TEXT/UTF8
    Codec ID/Info               : UTF-8 Plain Text
    Duration                    : 2 h 14 min
    Bit rate                    : 1 b/s
    Count of elements           : 70
    Stream size                 : 1.54 KiB (0%)
    Title                       : FORZADOS
    Language                    : Spanish
    Default                     : No
    Forced                      : No

    Text #3
    ID                          : 6
    Format                      : UTF-8
    Codec ID                    : S_TEXT/UTF8
    Codec ID/Info               : UTF-8 Plain Text
    Duration                    : 2 h 4 min
    Bit rate                    : 58 b/s
    Count of elements           : 1788
    Stream size                 : 53.6 KiB (0%)
    Language                    : English
    Default                     : No
    Forced                      : No

    Menu
    00:00:00.000                : en:00:00:00.000
    00:13:08.913                : en:00:13:08.913
    00:20:30.771                : en:00:20:30.771
    00:26:38.639                : en:00:26:38.639
    00:32:26.778                : en:00:32:26.778
    00:36:40.573                : en:00:36:40.573
    00:43:35.613                : en:00:43:35.613
    00:47:45.780                : en:00:47:45.780
    00:56:00.732                : en:00:56:00.732
    01:04:08.303                : en:01:04:08.303
    01:09:08.061                : en:01:09:08.061
    01:13:24.275                : en:01:13:24.275
    01:21:25.714                : en:01:21:25.714
    01:29:29.948                : en:01:29:29.948
    01:35:12.457                : en:01:35:12.457
    01:39:55.781                : en:01:39:55.781
    01:45:00.711                : en:01:45:00.711
    01:53:01.858                : en:01:53:01.858
    02:01:51.262                : en:02:01:51.262
    02:06:45.098                : en:02:06:45.097

  • Peso: 2.33 GB

Sinopsis

Rapido y  Furioso 8  720 hd latino también conocida como Fast & Furious 8 disponible en hd latino Con Dom y Letty de luna de miel, Brian y Mia fuera del juego y el resto de la pandilla exonerada de todo cargo, el equipo está instalado en una vida aparpentemente normal. Pero cuando una misteriosa mujer (Theron) seduce a Dom (Diesel) para regresar nuevamente al mundo del crimen, se ve incapaz de rechazar la oportunidad, traicionando así a todo el mundo cercano a él. A partir de ese momento todos se enfrentarán a pruebas como nunca antes habían tenido.

 

Desde las costas de Cuba y las calles de Nueva York hasta las llanuras del mar de Barents en el océano Ártico, nuestra fuerza de élite recorrerá el globo para impedir que un anarquista desencadene el caos en el mundo… y por supuesto para traer de vuelta a casa al hombre que les hizo una familia.

Ficha técnica

Imágenes, Capturas de la película

Video trailer de la película

Enlaces de descarga

Descargar Rapido y Furiosos 8 (2017) 720p Latino
Descargar

dpeliculas

Aportes de DPeliculasHDmega la pass es:dpeliculashdmega.org Aportes de CinemaniaHD la pass es:cinemaniahdd.com
Guardado en : Acción , Crimen , Sagas , Suspense

PelícuDelas relacionadas

  • The Ring 2 (2005) WEB-DL 1080p Latino

    2005
    The Ring 2 (2005) WEB-DL 1080p Latino

    0.0 1h 51m 2005

    Descargar gratis The Ring 2 (2005) WEB-DL 1080p Latino. Para escapar de una vida que era una auténtica...

    Director: Trudy Ramirez

    Género: Drama

    Actores: Sissy Spacek

  • The Grudge 3 (2009) Full Latino

    2009
    The Grudge 3 (2009) Full Latino

    0.0 1h 30m 2009

    Descargar gratis The Grudge 3 (2009) Full Latino. Tercera entrega americana de la saga iniciada por Takashi...

    Director: Toby Wilkins

    Género: FULL 1080p Pesadas

    Actores: Shimba Tsuchiya

Comentarios 0