Fast & Furious 8 (2017) Extended Cut Webdl 1080p Latino

1.373 vistas
1 estrella2 estrellas3 estrellas4 estrellas5 estrellas (3 votos, promedio: 3,67 de 5)
Cargando…

Información de Fast & Furious 8 (2017) Extended Cut Webdl 1080p Latino

Datos de la película

  • Calidad: WEBDL
  • Audio: Se especifica abajo de la Sinopsis
  • Subtitulos: Español Latino SRT
  • Resolución: 1826x796p
  • Formato: MKV
  • Codec: H.264
  • Encoder: Dpelis
  • Mediainfo: Ver Ver
  • The Fate of the Furious (2017) Extended Cut WEBDL 1080p Latino.mkv
    Format                      : Matroska
    Format version              : Version 4 / Version 2
    File size                   : 4.90 GiB
    Duration                    : 2 h 28 min
    Overall bit rate            : 4 735 kb/s
    Movie name                  : DPeliculasHDMega.ORG
    Encoded date                : UTC 2017-07-28 22:48:26
    Writing application         : mkvmerge v10.0.0 ('To Drown In You') 64bit
    Writing library             : libebml v1.3.4 + libmatroska v1.4.5

    Video
    ID                          : 1
    Format                      : AVC
    Format/Info                 : Advanced Video Codec
    Format profile              : [email protected]
    Format settings, CABAC      : Yes
    Format settings, ReFrames   : 5 frames
    Codec ID                    : V_MPEG4/ISO/AVC
    Duration                    : 2 h 28 min
    Bit rate                    : 3 500 kb/s
    Width                       : 1 826 pixels
    Height                      : 796 pixels
    Display aspect ratio        : 2.25:1
    Frame rate mode             : Constant
    Frame rate                  : 23.976 (24000/1001) FPS
    Color space                 : YUV
    Chroma subsampling          : 4:2:0
    Bit depth                   : 8 bits
    Scan type                   : Progressive
    Bits/(Pixel*Frame)          : 0.100
    Stream size                 : 3.57 GiB (73%)
    Writing library             : x264 core 148 r2708 86b7198
    Encoding settings           : cabac=1 / ref=5 / deblock=1:0:0 / analyse=0x3:0x113 / me=umh / subme=8 / psy=1 / psy_rd=1.00:0.00 / mixed_ref=1 / me_range=16 / chroma_me=1 / trellis=1 / 8x8dct=1 / cqm=0 / deadzone=21,11 / fast_pskip=1 / chroma_qp_offset=-2 / threads=25 / lookahead_threads=4 / sliced_threads=0 / nr=0 / decimate=1 / interlaced=0 / bluray_compat=0 / constrained_intra=0 / bframes=3 / b_pyramid=2 / b_adapt=2 / b_bias=0 / direct=3 / weightb=1 / open_gop=0 / weightp=2 / keyint=240 / keyint_min=24 / scenecut=40 / intra_refresh=0 / rc_lookahead=50 / rc=abr / mbtree=1 / bitrate=3500 / ratetol=1.0 / qcomp=0.60 / qpmin=0 / qpmax=69 / qpstep=4 / vbv_maxrate=62500 / vbv_bufsize=78125 / nal_hrd=none / filler=0 / ip_ratio=1.40 / aq=1:1.00
    Default                     : Yes
    Forced                      : No
    Color range                 : Limited
    Color primaries             : BT.709
    Transfer characteristics    : BT.709
    Matrix coefficients         : BT.709

    Audio #1
    ID                          : 2
    Format                      : AC-3
    Format/Info                 : Audio Coding 3
    Format settings, Endianness : Big
    Codec ID                    : A_AC3
    Duration                    : 2 h 28 min
    Bit rate mode               : Constant
    Bit rate                    : 640 kb/s
    Channel(s)                  : 6 channels
    Channel positions           : Front: L C R, Side: L R, LFE
    Sampling rate               : 48.0 kHz
    Frame rate                  : 31.250 FPS (1536 spf)
    Bit depth                   : 16 bits
    Compression mode            : Lossy
    Delay relative to video     : -5 ms
    Stream size                 : 679 MiB (14%)
    Language                    : Spanish
    Service kind                : Complete Main
    Default                     : Yes
    Forced                      : No

    Audio #2
    ID                          : 3
    Format                      : AC-3
    Format/Info                 : Audio Coding 3
    Format settings, Endianness : Big
    Codec ID                    : A_AC3
    Duration                    : 2 h 28 min
    Bit rate mode               : Constant
    Bit rate                    : 640 kb/s
    Channel(s)                  : 6 channels
    Channel positions           : Front: L C R, Side: L R, LFE
    Sampling rate               : 48.0 kHz
    Frame rate                  : 31.250 FPS (1536 spf)
    Bit depth                   : 16 bits
    Compression mode            : Lossy
    Delay relative to video     : -5 ms
    Stream size                 : 679 MiB (14%)
    Language                    : English
    Service kind                : Complete Main
    Default                     : No
    Forced                      : No

    Text
    ID                          : 4
    Format                      : UTF-8
    Codec ID                    : S_TEXT/UTF8
    Codec ID/Info               : UTF-8 Plain Text
    Duration                    : 2 h 26 min
    Bit rate                    : 15 b/s
    Count of elements           : 462
    Stream size                 : 16.5 KiB (0%)
    Title                       : FORZADOS
    Language                    : Spanish
    Default                     : Yes
    Forced                      : No

  • Peso: 4.90 GB

Sinopsis

Descargar Pelicula Rapidos y Furiosos 8 Versión Extendida 1080p Latino, Con Dom y Letty de luna de miel, Brian y Mia fuera del juego y el resto de la pandilla exonerada de todo cargo, el equipo está instalado en una vida aparentemente normal. Pero cuando una misteriosa mujer (Theron) seduce a Dom (Diesel) para regresar nuevamente al mundo del crimen, se ve incapaz de rechazar la oportunidad, traicionando así a todo el mundo cercano a él. A partir de ese momento todos se enfrentarán a pruebas como nunca antes habían tenido.
Desde las costas de Cuba y las calles de Nueva York hasta las llanuras del mar de Barents en el océano Ártico, nuestra fuerza de élite recorrerá el globo para impedir que un anarquista desencadene el caos en el mundo… y por supuesto para traer de vuelta a casa al hombre que les hizo una familia.

 

Español Latino AC3 5.1 ( Edicion del Bluray) – Ingles AC3 5.1 WEBDL

Incluye Subtitulos Latino Forzados ( Creados por Oraldo)

No subtitulos Latino Completos, No hay

Ficha técnica

Imágenes, Capturas de la película

Video trailer de la película

Enlaces de descarga

Descargar Fast & Furious 8 (2017) Extended Cut Webdl 1080p Latino
Descargar

dpeliculas

Aportes de DPeliculasHDmega la pass es:dpeliculashdmega.org Aportes de CinemaniaHD la pass es:cinemaniahdd.com
Guardado en : Acción , Crimen , Suspense

PelícuDelas relacionadas

  • Operation Mekong (2016) 1080p Latino

    2016
    Operation Mekong (2016) 1080p Latino

    5.0 2h 4m 2016

    A lo largo del río Mekong se encuentra el llamado triángulo dorado, uno de los mayores proveedores...

    Director: Dante Lam

    Género: Acción

    Actores: Zhao Jian

  • Collide (2016) 1080p Latino

    2016
    Collide (2016) 1080p Latino

    0.0 1h 39m 2016

    Descargar Persecucion al limite hd latino. Tambien conocida como Collide 1080p Cuando uno de los atracos...

    Director: Eran Creevy

    Género: Acción

    Actores: Nicholas Hoult

  • Gold la gran estafa (2016) 1080p Latino

    2016
    Gold la gran estafa (2016) 1080p Latino

    0.0 2h 1m 2016

    Descarga Gold hd latino, también conocida La gran estafa 1080p latino Kenny Wells es un fracasado hombre...

    Director: Stephen Gaghan

    Género: Aventura

    Actores: Yothin Mapobphun

Comentarios 11
  • Ragnarok - 29 Julio, 2017

    ya pude acceder a los links directos, pero esta extraño porque cuando le doy a enlace privado y luego a descargar me sale fate & furios vip, pero son los links con acortador, pero solo me tengo que logear y ya aparecen los links directos. es exttraño porque antes no me salia así.

    • dpelis

      Administrador
      - 29 Julio, 2017

      siempre debe estar login.

  • doni - 29 Julio, 2017

    la pelicula esta completamente en español latino o no ser administrador

    • dpelis

      Administrador
      - 29 Julio, 2017

      no se porque preguntan algo que ya aclare?

  • fanfurious - 29 Julio, 2017

    esta completamente doblado en latino o no

    • dpelis

      Administrador
      - 29 Julio, 2017

      ya lo explique en la sinopsis

  • Jhefferson - 29 Julio, 2017

    Muchas gracias amigos por esta version de fast & furious 8 como siempre excelente y no entiendo por que algunas personas no pueden entender que el hecho de que una pelicula pese mas no significa que se valla a ver mejor yo no me fijaria en el peso no siempre es asi la verdad creo que depende de la pelicula. Saludos Amigos 😀 sigan con estos grandes aportes y esperando el dia en que salgan la mujer maravilla y alient covenant en plateada sus versiones de las pesadas osea portada plateada son las mejores para mi 😀

  • Ragnarok - 29 Julio, 2017

    disculpen ppero creo que se equivocaron en los enlaces vip porque vienen con acortador y se supone que los enlaces vip vienen los enlaces directos

    • dpelis

      Administrador
      - 29 Julio, 2017

      enlaces limpios

  • El Chavo - 29 Julio, 2017

    Me gusta esta pagina, pero estan subiendo versiones supuestamente pesadas que pesan casi lo mismo que las versiones web-dl. Usted no eran así antes. Por favor, no bajen la calidad. Disculpen si la critica les parece injusta, pero para que usar una tapa blanca si es lo mismo que la tapa oscura?

    • dpelis

      Administrador
      - 29 Julio, 2017

      lo repito una y otra vez las plateadas es un preset diferente se demora el ripeo porq se comprime la imagen a una velocidad lenta, el cual pesa menos depende el granulado de la pelicula. y las portadas negras un ripeo rapido, con bitrate fijo el cual casi pesan los mismo con la plateada, antes de hacer una critica como esta primero hacer pruebas de imagen en un tv mayor de 49′ Saludos