Es por tu bien (2017) Español

1.723 vistas
1 estrella2 estrellas3 estrellas4 estrellas5 estrellas (Ninguna valoración todavía)
Cargando…

Información de Es por tu bien (2017) Español

Datos de la película

  • Calidad: Full 1080p
  • Audio: Español AC3 5.1 BLURAY
  • Subtitulos: No
  • Resolución: 1920x1080p
  • Formato: MKV
  • Codec: H.264
  • Encoder: Dpelis
  • Mediainfo: Ver Ver
  • Es.por.tu.bien.2017.CASTELLANO.mkv
    Format                      : Matroska
    Format version              : Version 4 / Version 2
    File size                   : 2.84 GiB
    Duration                    : 1 h 32 min
    Overall bit rate            : 4 396 kb/s
    Movie name                  : DPeliculasHDMega.ORG
    Encoded date                : UTC 2017-06-11 23:15:51 / UTC 2017-06-11T00:56:29Z
    Writing application         : mkvmerge v10.0.0 ('To Drown In You') 64bit
    Writing library             : libebml v1.3.4 + libmatroska v1.4.5 / Lavf57.7.2

    Video
    ID                          : 1
    Format                      : AVC
    Format/Info                 : Advanced Video Codec
    Format profile              : [email protected]
    Format settings, CABAC      : Yes
    Format settings, ReFrames   : 4 frames
    Codec ID                    : V_MPEG4/ISO/AVC
    Duration                    : 1 h 32 min
    Bit rate                    : 3 668 kb/s
    Width                       : 1 920 pixels
    Height                      : 1 080 pixels
    Display aspect ratio        : 16:9
    Frame rate mode             : Constant
    Frame rate                  : 24.000 FPS
    Color space                 : YUV
    Chroma subsampling          : 4:2:0
    Bit depth                   : 8 bits
    Scan type                   : Progressive
    Bits/(Pixel*Frame)          : 0.074
    Stream size                 : 2.37 GiB (83%)
    Writing library             : x264 core 148 r2708 86b7198
    Encoding settings           : cabac=1 / ref=4 / deblock=1:0:0 / analyse=0x3:0x133 / me=esa / subme=10 / psy=1 / psy_rd=1.00:0.00 / mixed_ref=1 / me_range=24 / chroma_me=1 / trellis=2 / 8x8dct=1 / cqm=0 / deadzone=21,11 / fast_pskip=1 / chroma_qp_offset=-2 / threads=12 / lookahead_threads=2 / sliced_threads=0 / nr=0 / decimate=1 / interlaced=0 / bluray_compat=0 / constrained_intra=0 / bframes=8 / b_pyramid=2 / b_adapt=2 / b_bias=0 / direct=3 / weightb=1 / open_gop=0 / weightp=2 / keyint=240 / keyint_min=24 / scenecut=40 / intra_refresh=0 / rc_lookahead=60 / rc=crf / mbtree=1 / crf=20.0 / qcomp=0.60 / qpmin=0 / qpmax=69 / qpstep=4 / vbv_maxrate=62500 / vbv_bufsize=78125 / crf_max=0.0 / nal_hrd=none / filler=0 / ip_ratio=1.40 / aq=1:1.00
    Default                     : Yes
    Forced                      : No
    Color range                 : Limited
    Color primaries             : BT.709
    Transfer characteristics    : BT.709
    Matrix coefficients         : BT.709
    Statistics Tags Issue       : mkvmerge v10.0.0 ('To Drown In You') 64bit 2017-06-11 23:15:51 / mkvmerge v10.0.0 ('To Drown In You') 64bit 2017-06-11 23:15:51 / UTC 2017-06-11T00:56:29Z
    FromStats_BitRate           : 3754172
    FromStats_Duration          : 01:32:34.542000000
    FromStats_FrameCount        : 133309
    FromStats_StreamSize        : 2606588497

    Audio
    ID                          : 2
    Format                      : AC-3
    Format/Info                 : Audio Coding 3
    Format settings, Endianness : Big
    Codec ID                    : A_AC3
    Duration                    : 1 h 32 min
    Bit rate mode               : Constant
    Bit rate                    : 640 kb/s
    Channel(s)                  : 6 channels
    Channel positions           : Front: L C R, Side: L R, LFE
    Sampling rate               : 48.0 kHz
    Frame rate                  : 31.250 FPS (1536 spf)
    Bit depth                   : 16 bits
    Compression mode            : Lossy
    Stream size                 : 424 MiB (15%)
    Title                       : Surround
    Language                    : Spanish
    Service kind                : Complete Main
    Default                     : Yes
    Forced                      : No
    Statistics Tags Issue       : mkvmerge v10.0.0 ('To Drown In You') 64bit 2017-06-11 23:15:51 / mkvmerge v10.0.0 ('To Drown In You') 64bit 2017-06-11 23:15:51 / UTC 2017-06-11T00:56:29Z
    FromStats_BitRate           : 640000
    FromStats_Duration          : 01:32:34.560000000
    FromStats_FrameCount        : 173580
    FromStats_StreamSize        : 444364800

    Menu
    00:00:00.000                : :Chapter 1
    00:07:07.083                : :Chapter 2
    00:16:32.250                : :Chapter 3
    00:23:24.375                : :Chapter 4
    00:28:13.750                : :Chapter 5
    00:36:54.792                : :Chapter 6
    00:45:31.167                : :Chapter 7
    00:52:36.917                : :Chapter 8
    01:00:28.500                : :Chapter 9
    01:07:04.292                : :Chapter 10
    01:16:15.333                : :Chapter 11
    01:24:18.250                : :Chapter 12

  • Peso: 2.84 GB

Sinopsis

La peor pesadilla que un padre puede tener con una hija es que ésta crezca y llegue el día en que le presente a su novio, y que éste sea un tipo despreciable que busca una sola cosa de su preciada y amada niñita. Y ese día es precisamente el que les llega a tres padres: a Arturo, a Poli y a Chus. Sus dulces hijas han decidido tirar su futuro a la basura echándose tres novios a su juicio abominables. Así que la única solución es aunar fuerzas para librarse de ellos como sea.

Ficha técnica

Imágenes, Capturas de la película

Video trailer de la película

Enlaces de descarga

Descargar Es por tu bien (2017) Español
Descargar

dpeliculas

Aportes de DPeliculasHDmega la pass es:dpeliculashdmega.org Aportes de CinemaniaHD la pass es:cinemaniahdd.com
Guardado en : Comedia , FULL 1080p Pesadas

PelícuDelas relacionadas

  • El fugitivo (1993) Full 1080p Latino

    1993
    El fugitivo (1993) Full 1080p Latino

    5.0 2h 13m 1993

    El doctor Richard Kimble es un prestigioso cirujano de Chicago con una vida prácticamente perfecta:...

    Director: Andrew Davis

    Género: Acción

    Actores: Turk Muller

  • Dragon Ball Super (2015) Full 1080p Latino

    2015
    Dragon Ball Super (2015) Full 1080p Latino

    4.1 0h 24m 2015

    Si eres un seguidor de la serie Dragon ball super latino, entonces ahora puedes disfrutar de esta maravillosa...

    Director: Akira Toriyama

    Género: Anime

    Actores: Naoki Tatsuta

Comentarios 0