Empeliculados (2017) Webdl 1080p Latino

720 vistas
1 estrella2 estrellas3 estrellas4 estrellas5 estrellas (Ninguna valoración todavía)
Cargando…

Información de Empeliculados (2017) Webdl 1080p Latino

Datos de la película

  • Calidad: WEBDL
  • Audio: Español Latino AC3 5.1 iTunes
  • Subtitulos: No
  • Resolución: 1908x1006p
  • Formato: MKV
  • Codec: H.264
  • Encoder: Dpelis
  • Mediainfo: Ver Ver
  • Empeliculados (2017) WEBDL 1080p Latino.mkv
    Format                      : Matroska
    Format version              : Version 4 / Version 2
    File size                   : 3.68 GiB
    Duration                    : 1 h 35 min
    Overall bit rate            : 5 543 kb/s
    Movie name                  : DPeliculasHDMega.ORG
    Encoded date                : UTC 2017-08-10 14:53:05
    Writing application         : mkvmerge v10.0.0 ('To Drown In You') 64bit
    Writing library             : libebml v1.3.4 + libmatroska v1.4.5

    Video
    ID                          : 1
    Format                      : AVC
    Format/Info                 : Advanced Video Codec
    Format profile              : [email protected]
    Format settings, CABAC      : Yes
    Format settings, ReFrames   : 4 frames
    Codec ID                    : V_MPEG4/ISO/AVC
    Duration                    : 1 h 35 min
    Bit rate                    : 5 157 kb/s
    Width                       : 1 908 pixels
    Height                      : 1 006 pixels
    Display aspect ratio        : 1.897
    Frame rate mode             : Constant
    Frame rate                  : 23.976 (23976/1000) FPS
    Color space                 : YUV
    Chroma subsampling          : 4:2:0
    Bit depth                   : 8 bits
    Scan type                   : Progressive
    Bits/(Pixel*Frame)          : 0.112
    Stream size                 : 3.43 GiB (93%)
    Language                    : English
    Default                     : Yes
    Forced                      : No
    Color range                 : Limited
    Color primaries             : BT.709
    Transfer characteristics    : BT.709
    Matrix coefficients         : BT.709

    Audio
    ID                          : 2
    Format                      : AC-3
    Format/Info                 : Audio Coding 3
    Format settings, Endianness : Big
    Codec ID                    : A_AC3
    Duration                    : 1 h 35 min
    Bit rate mode               : Constant
    Bit rate                    : 384 kb/s
    Channel(s)                  : 6 channels
    Channel positions           : Front: L C R, Side: L R, LFE
    Sampling rate               : 48.0 kHz
    Frame rate                  : 31.250 FPS (1536 spf)
    Bit depth                   : 16 bits
    Compression mode            : Lossy
    Stream size                 : 261 MiB (7%)
    Language                    : Spanish
    Service kind                : Complete Main
    Default                     : Yes
    Forced                      : No

    Menu
    00:00:00.000                : en:Capítulo 1
    00:13:56.753                : en:Capítulo 2
    00:28:54.692                : en:Capítulo 3
    00:42:39.599                : en:Capítulo 4
    00:56:12.370                : en:Capítulo 5
    01:07:57.616                : en:Capítulo 6
    01:23:51.987                : en:Capítulo 7

  • Peso: 3.68 GB

Sinopsis

Descargar Empeliculados hd latino, es una pelicula colombiana. Jorge, un director de cine soñador con pocos pesos en el bolsillo y Andrés, un actor venido a menos al que no lo reconoce ni su mamá, llevan años intentando hacer su primera película. Cuando su sueño se desmorona, Jorge y Andrés deciden ocultarle la verdad a sus compañeros de proyecto, quienes son también sus mejores amigos. Ambos, terminarán embarcándose en una serie de ocurrencias disparatadas para conseguir el dinero y sostener su mentira.

Ficha técnica

  • Titulo original: Empeliculados
  • Fecha de lanzamiento: 20-04-2017 (Colombia)
  • Director: Diego Fernando Bustamante
  • Género: Comedia
  • Puntuación: 0.0 0 votos
  • Duración:
    1h 35m

Imágenes, Capturas de la película

Video trailer de la película

Enlaces de descarga

Descargar Empeliculados (2017) Webdl 1080p Latino
Descargar

dpeliculas

Aportes de DPeliculasHDmega la pass es:dpeliculashdmega.org Aportes de CinemaniaHD la pass es:cinemaniahdd.com
Guardado en : Comedia

PelícuDelas relacionadas

  • Desnudo (2017) Webdl 1080p Latino

    2017
    Desnudo (2017) Webdl 1080p Latino

    0.0 1h 36m 2017

    Descargar Naked hd latino. Es una pelicula de Netflix, tambien conocida en latinoamerica como Desnudo...

    Director: Michael Tiddes

    Género: Comedia

    Actores: Regina Hall

  • Kung Fu Yoga (2017) Full 1080p Castellano

    2017
    Kung Fu Yoga (2017) Full 1080p Castellano

    0.0 2h 10m 2017

    Descargar Kung Fu Yoga HD una película China pero con doblaje Castellano, no sabemos si habra latino...

    Director: Stanley Tong

    Género: Acción

    Actores: Zhang Guoli

  • Guardianes de la galaxia Vol. 2 (2017) 1080p Latino

    2017
    Guardianes de la galaxia Vol. 2 (2017) 1080p Latino

    4.7 2h 17m 2017

    Al fin de larga esperar podremos disfrutar de Guardianes de la Galaxia Parte 2 1080p Latino El singular...

    Director: Martin Kitrosser

    Género: Acción

    Actores: Zoe Saldana

Comentarios 0