Advertise here

Emoji: La película (2017) 1080p Latino

5.531 vistas
1 estrella2 estrellas3 estrellas4 estrellas5 estrellas (2 votos, promedio: 1,00 de 5)
Cargando…

Información de Emoji: La película (2017) 1080p Latino

Datos de la película

  • Calidad: 1080p
  • Audio: Español Latino AC3 5.1 BLURAY - Ingles AC3 5.1 BLURAY
  • Subtitulos: Español Latino SRT
  • Resolución: 1920X800
  • Formato: MKV
  • Codec: H.264
  • Encoder: Dpelis
  • Mediainfo: Clic para Mostrar Datos Ver
  • The Emoji Movie (2017) 1080p Latino RESUBIDA.mkv
    Format                      : Matroska
    Format version              : Version 4 / Version 2
    File size                   : 2.59 GiB
    Duration                    : 1 h 26 min
    Overall bit rate            : 4 289 kb/s
    Movie name                  : DPeliculasHDMega.ORG
    Encoded date                : UTC 2017-10-11 01:31:41 / UTC 2017-10-11T00:03:22Z
    Writing application         : mkvmerge v10.0.0 ('To Drown In You') 64bit
    Writing library             : libebml v1.3.4 + libmatroska v1.4.5 / Lavf57.7.2

    Video
    ID                          : 1
    Format                      : AVC
    Format/Info                 : Advanced Video Codec
    Format profile              : [email protected]
    Format settings, CABAC      : Yes
    Format settings, RefFrames  : 5 frames
    Codec ID                    : V_MPEG4/ISO/AVC
    Duration                    : 1 h 26 min
    Bit rate                    : 3 500 kb/s
    Width                       : 1 920 pixels
    Height                      : 804 pixels
    Display aspect ratio        : 2.40:1
    Frame rate mode             : Constant
    Frame rate                  : 23.976 (24000/1001) FPS
    Color space                 : YUV
    Chroma subsampling          : 4:2:0
    Bit depth                   : 8 bits
    Scan type                   : Progressive
    Bits/(Pixel*Frame)          : 0.095
    Stream size                 : 2.07 GiB (80%)
    Writing library             : x264 core 148 r2708 86b7198
    Encoding settings           : cabac=1 / ref=5 / deblock=1:0:0 / analyse=0x3:0x113 / me=umh / subme=8 / psy=1 / psy_rd=1.00:0.00 / mixed_ref=1 / me_range=16 / chroma_me=1 / trellis=1 / 8x8dct=1 / cqm=0 / deadzone=21,11 / fast_pskip=1 / chroma_qp_offset=-2 / threads=12 / lookahead_threads=2 / sliced_threads=0 / nr=0 / decimate=1 / interlaced=0 / bluray_compat=0 / constrained_intra=0 / bframes=3 / b_pyramid=2 / b_adapt=2 / b_bias=0 / direct=3 / weightb=1 / open_gop=0 / weightp=2 / keyint=240 / keyint_min=24 / scenecut=40 / intra_refresh=0 / rc_lookahead=50 / rc=abr / mbtree=1 / bitrate=3500 / ratetol=1.0 / qcomp=0.60 / qpmin=0 / qpmax=69 / qpstep=4 / vbv_maxrate=62500 / vbv_bufsize=78125 / nal_hrd=none / filler=0 / ip_ratio=1.40 / aq=1:1.00
    Default                     : Yes
    Forced                      : No
    Color range                 : Limited
    Color primaries             : BT.709
    Transfer characteristics    : BT.709
    Matrix coefficients         : BT.709
    Statistics Tags Issue       : mkvmerge v10.0.0 ('To Drown In You') 64bit 2017-10-11 01:31:41 / mkvmerge v10.0.0 ('To Drown In You') 64bit 2017-10-11 01:31:41 / UTC 2017-10-11T00:03:22Z
    FromStats_BitRate           : 3460145
    FromStats_Duration          : 01:26:22.136000000
    FromStats_FrameCount        : 124247
    FromStats_StreamSize        : 2241368205

    Audio #1
    ID                          : 2
    Format                      : AC-3
    Format/Info                 : Audio Coding 3
    Format settings, Endianness : Big
    Codec ID                    : A_AC3
    Duration                    : 1 h 26 min
    Bit rate mode               : Constant
    Bit rate                    : 384 kb/s
    Channel(s)                  : 6 channels
    Channel positions           : Front: L C R, Side: L R, LFE
    Sampling rate               : 48.0 kHz
    Frame rate                  : 31.250 FPS (1536 SPF)
    Bit depth                   : 16 bits
    Compression mode            : Lossy
    Delay relative to video     : 5 ms
    Stream size                 : 237 MiB (9%)
    Title                       : Surround
    Language                    : Spanish
    Service kind                : Complete Main
    Default                     : Yes
    Forced                      : No
    Statistics Tags Issue       : mkvmerge v10.0.0 ('To Drown In You') 64bit 2017-10-11 01:31:41 / mkvmerge v10.0.0 ('To Drown In You') 64bit 2017-10-11 01:31:41 / UTC 2017-10-11T00:03:22Z
    FromStats_BitRate           : 384000
    FromStats_Duration          : 01:26:22.144000000
    FromStats_FrameCount        : 161942
    FromStats_StreamSize        : 248742912

    Audio #2
    ID                          : 3
    Format                      : AC-3
    Format/Info                 : Audio Coding 3
    Format settings, Endianness : Big
    Codec ID                    : A_AC3
    Duration                    : 1 h 26 min
    Bit rate mode               : Constant
    Bit rate                    : 384 kb/s
    Channel(s)                  : 6 channels
    Channel positions           : Front: L C R, Side: L R, LFE
    Sampling rate               : 48.0 kHz
    Frame rate                  : 31.250 FPS (1536 SPF)
    Bit depth                   : 16 bits
    Compression mode            : Lossy
    Delay relative to video     : -4 ms
    Stream size                 : 237 MiB (9%)
    Title                       : Surround
    Language                    : English
    Service kind                : Complete Main
    Default                     : No
    Forced                      : No
    Statistics Tags Issue       : mkvmerge v10.0.0 ('To Drown In You') 64bit 2017-10-11 01:31:41 / mkvmerge v10.0.0 ('To Drown In You') 64bit 2017-10-11 01:31:41 / UTC 2017-10-11T00:03:22Z
    FromStats_BitRate           : 384000
    FromStats_Duration          : 01:26:22.144000000
    FromStats_FrameCount        : 161942
    FromStats_StreamSize        : 248742912

    Text #1
    ID                          : 4
    Format                      : PGS
    Muxing mode                 : zlib
    Codec ID                    : S_HDMV/PGS
    Codec ID/Info               : Picture based subtitle format used on BDs/HD-DVDs
    Language                    : Spanish
    Default                     : No
    Forced                      : No
    Statistics Tags Issue       : mkvmerge v10.0.0 ('To Drown In You') 64bit 2017-10-11 01:31:41 / mkvmerge v10.0.0 ('To Drown In You') 64bit 2017-10-11 01:31:41 / UTC 2017-10-11T00:03:22Z
    FromStats_BitRate           : 24695
    FromStats_Duration          : 01:25:14.732000000
    FromStats_FrameCount        : 2302
    FromStats_StreamSize        : 15788573

    Text #2
    ID                          : 5
    Format                      : PGS
    Muxing mode                 : zlib
    Codec ID                    : S_HDMV/PGS
    Codec ID/Info               : Picture based subtitle format used on BDs/HD-DVDs
    Language                    : English
    Default                     : No
    Forced                      : No
    Statistics Tags Issue       : mkvmerge v10.0.0 ('To Drown In You') 64bit 2017-10-11 01:31:41 / mkvmerge v10.0.0 ('To Drown In You') 64bit 2017-10-11 01:31:41 / UTC 2017-10-11T00:03:22Z
    FromStats_BitRate           : 37215
    FromStats_Duration          : 01:19:06.406000000
    FromStats_FrameCount        : 3318
    FromStats_StreamSize        : 22080179

    Text #3
    ID                          : 6
    Format                      : UTF-8
    Codec ID                    : S_TEXT/UTF8
    Codec ID/Info               : UTF-8 Plain Text
    Language                    : Spanish
    Default                     : No
    Forced                      : No
    Statistics Tags Issue       : mkvmerge v10.0.0 ('To Drown In You') 64bit 2017-10-11 01:31:41 / mkvmerge v10.0.0 ('To Drown In You') 64bit 2017-10-11 01:31:41 / UTC 2017-10-11T00:03:22Z
    FromStats_BitRate           : 59
    FromStats_Duration          : 01:25:14.732000000
    FromStats_FrameCount        : 1151
    FromStats_StreamSize        : 37990

    Menu
    00:00:00.000                : :Chapter 1
    00:05:12.479                : :Chapter 2
    00:11:38.531                : :Chapter 3
    00:15:49.407                : :Chapter 4
    00:22:24.051                : :Chapter 5
    00:26:48.357                : :Chapter 6
    00:32:10.429                : :Chapter 7
    00:39:15.186                : :Chapter 8
    00:44:16.696                : :Chapter 9
    00:48:43.129                : :Chapter 10
    00:53:07.393                : :Chapter 11
    00:58:19.371                : :Chapter 12
    01:02:35.752                : :Chapter 13
    01:07:18.910                : :Chapter 14
    01:11:54.894                : :Chapter 15
    01:16:05.394                : :Chapter 16

  • Peso: 2,59 GiB

Sinopsis

Los protagonistas habitarán la misteriosa tierra de Textopolis, donde todos los emojis favoritos de la gente cobran vida, mientras esperan ser seleccionados por el usuario del teléfono. Todos los personajes tienen una sola expresión facial a excepción de Gen (TJ Miller), un emoji que nació sin filtro y se llena de múltiples expresiones. Para lograr ser normal, Gen se embarcará en una aventura o “app-ventura”, junto a sus amigos Hi-5 (James Corden) y Jailbreak (Ilana Glazer). Pero pronto, una gran amenaza hará que el destino de estos personajes dependa de los tres amigos, teniendo que salvar su mundo antes que sea borrado por completo.

Resubida por error de Ripeo.

Ficha técnica

  • Titulo original: The Emoji Movie
  • Fecha de lanzamiento: 28-07-2017 (United States of America)
  • Director: Anthony Leondis
  • Género: Animación, Comedia, Familia
  • Puntuación: 1.0 2 votos
  • Duración:
    1 h 26 min

Video trailer de la película

Enlaces de descarga

Descargar Emoji: La película (2017) 1080p Latino
Descargar

dpeliculas

Aportes de DPeliculasHDmega la pass es:dpeliculashdmega.org Aportes de CinemaniaHD la pass es:cinemaniahdd.com
Guardado en : Animación , Comedia , Familia

Películas relacionadas

Comentarios 6
  • Alfredo - 11 octubre, 2017

    Que tal esta completa esta versión sin fallas?

    • dpelis

      Administrador
      - 11 octubre, 2017

      ahi se dejo nota, q reparada

  • GERARDO - 10 octubre, 2017

    No manchen, despues de tanto anuncio para que salga disponible en una hora

    • dpelis

      Administrador
      - 10 octubre, 2017

      andamos trabajando en ello, el bluray tiene proteccion.

  • YO - 10 octubre, 2017

    NO TIENES EL AUDIO COMPLETO?

    • dpelis

      Administrador
      - 11 octubre, 2017

      ya fue reparado la pelicula