El Ultimo Rey (2016) 1080p Latino

1.803 vistas
1 estrella2 estrellas3 estrellas4 estrellas5 estrellas (Ninguna valoración todavía)
Cargando…

Información de El Ultimo Rey (2016) 1080p Latino

Datos de la película

  • Calidad: 1080p
  • Audio: Se especifica abajo de la Sinopsis
  • Subtitulos: Español Latino SRT
  • Resolución: 1920x816p
  • Formato: MKV
  • Codec: H.264
  • Encoder: Dpelis
  • Mediainfo: Ver Ver
  • The Last King (2016) 1080p Latino.mkv
    Format                      : Matroska
    Format version              : Version 4 / Version 2
    File size                   : 2.72 GiB
    Duration                    : 1 h 40 min
    Overall bit rate            : 3 886 kb/s
    Movie name                  : DPeliculasHDMega.ORG
    Encoded date                : UTC 2017-09-16 04:08:13 / UTC 2017-09-16T01:19:01Z
    Writing application         : mkvmerge v10.0.0 ('To Drown In You') 64bit
    Writing library             : libebml v1.3.4 + libmatroska v1.4.5 / Lavf57.7.2

    Video
    ID                          : 1
    Format                      : AVC
    Format/Info                 : Advanced Video Codec
    Format profile              : [email protected]
    Format settings, CABAC      : Yes
    Format settings, RefFrames  : 4 frames
    Codec ID                    : V_MPEG4/ISO/AVC
    Duration                    : 1 h 40 min
    Bit rate                    : 3 232 kb/s
    Nominal bit rate            : 3 500 kb/s
    Width                       : 1 920 pixels
    Height                      : 816 pixels
    Display aspect ratio        : 2.35:1
    Frame rate mode             : Constant
    Frame rate                  : 23.976 (24000/1001) FPS
    Color space                 : YUV
    Chroma subsampling          : 4:2:0
    Bit depth                   : 8 bits
    Scan type                   : Progressive
    Bits/(Pixel*Frame)          : 0.086
    Stream size                 : 2.26 GiB (83%)
    Writing library             : x264 core 148 r2708 86b7198
    Encoding settings           : cabac=1 / ref=3 / deblock=1:0:0 / analyse=0x3:0x113 / me=hex / subme=7 / psy=1 / psy_rd=1.00:0.00 / mixed_ref=1 / me_range=16 / chroma_me=1 / trellis=1 / 8x8dct=1 / cqm=0 / deadzone=21,11 / fast_pskip=1 / chroma_qp_offset=-2 / threads=12 / lookahead_threads=2 / sliced_threads=0 / nr=0 / decimate=1 / interlaced=0 / bluray_compat=0 / constrained_intra=0 / bframes=3 / b_pyramid=2 / b_adapt=1 / b_bias=0 / direct=1 / weightb=1 / open_gop=0 / weightp=2 / keyint=240 / keyint_min=24 / scenecut=40 / intra_refresh=0 / rc_lookahead=40 / rc=abr / mbtree=1 / bitrate=3500 / ratetol=1.0 / qcomp=0.60 / qpmin=0 / qpmax=69 / qpstep=4 / vbv_maxrate=62500 / vbv_bufsize=78125 / nal_hrd=none / filler=0 / ip_ratio=1.40 / aq=1:1.00
    Default                     : Yes
    Forced                      : No
    Color range                 : Limited
    Color primaries             : BT.709
    Transfer characteristics    : BT.709
    Matrix coefficients         : BT.709
    Statistics Tags Issue       : mkvmerge v10.0.0 ('To Drown In You') 64bit 2017-09-16 04:08:13 / mkvmerge v10.0.0 ('To Drown In You') 64bit 2017-09-16 04:08:13 / UTC 2017-09-16T01:19:01Z
    FromStats_BitRate           : 3308015
    FromStats_Duration          : 01:40:02.747000000
    FromStats_FrameCount        : 143922
    FromStats_StreamSize        : 2482147313

    Audio #1
    ID                          : 2
    Format                      : AC-3
    Format/Info                 : Audio Coding 3
    Format settings, Endianness : Big
    Codec ID                    : A_AC3
    Duration                    : 1 h 40 min
    Bit rate mode               : Constant
    Bit rate                    : 192 kb/s
    Channel(s)                  : 6 channels
    Channel positions           : Front: L C R, Side: L R, LFE
    Sampling rate               : 48.0 kHz
    Frame rate                  : 31.250 FPS (1536 SPF)
    Bit depth                   : 16 bits
    Compression mode            : Lossy
    Delay relative to video     :  995 ms
    Stream size                 : 137 MiB (5%)
    Language                    : Spanish
    Service kind                : Complete Main
    Default                     : Yes
    Forced                      : No
    Statistics Tags Issue       : mkvmerge v10.0.0 ('To Drown In You') 64bit 2017-09-16 04:08:13 / mkvmerge v10.0.0 ('To Drown In You') 64bit 2017-09-16 04:08:13 / UTC 2017-09-16T01:19:01Z
    FromStats_BitRate           : 192000
    FromStats_Duration          : 01:39:52.512000000
    FromStats_FrameCount        : 187266
    FromStats_StreamSize        : 143820288

    Audio #2
    ID                          : 3
    Format                      : AC-3
    Format/Info                 : Audio Coding 3
    Format settings, Endianness : Big
    Codec ID                    : A_AC3
    Duration                    : 1 h 40 min
    Bit rate mode               : Constant
    Bit rate                    : 384 kb/s
    Channel(s)                  : 6 channels
    Channel positions           : Front: L C R, Side: L R, LFE
    Sampling rate               : 48.0 kHz
    Frame rate                  : 31.250 FPS (1536 SPF)
    Bit depth                   : 16 bits
    Compression mode            : Lossy
    Delay relative to video     : -5 ms
    Stream size                 : 275 MiB (10%)
    Title                       : Surround
    Language                    : French
    Service kind                : Complete Main
    Default                     : No
    Forced                      : No
    Statistics Tags Issue       : mkvmerge v10.0.0 ('To Drown In You') 64bit 2017-09-16 04:08:13 / mkvmerge v10.0.0 ('To Drown In You') 64bit 2017-09-16 04:08:13 / UTC 2017-09-16T01:19:01Z
    FromStats_BitRate           : 384000
    FromStats_Duration          : 01:40:02.688000000
    FromStats_FrameCount        : 187584
    FromStats_StreamSize        : 288129024

    Text
    ID                          : 4
    Format                      : UTF-8
    Codec ID                    : S_TEXT/UTF8
    Codec ID/Info               : UTF-8 Plain Text
    Language                    : Spanish
    Default                     : No
    Forced                      : No
    Statistics Tags Issue       : mkvmerge v10.0.0 ('To Drown In You') 64bit 2017-09-16 04:08:13 / mkvmerge v10.0.0 ('To Drown In You') 64bit 2017-09-16 04:08:13 / UTC 2017-09-16T01:19:01Z
    FromStats_BitRate           : 27
    FromStats_Duration          : 01:38:38.082000000
    FromStats_FrameCount        : 682
    FromStats_StreamSize        : 20587

    Menu
    00:00:00.000                : :00:00:00.000
    00:09:28.693                : :00:09:28.651
    00:18:36.991                : :00:18:36.866
    00:27:39.867                : :00:27:39.783
    00:39:37.125                : :00:39:37.083
    00:46:24.949                : :00:46:24.865
    00:54:12.332                : :00:54:12.207
    01:02:39.881                : :01:02:39.756
    01:08:45.204                : :01:08:45.038
    01:20:54.558                : :01:20:54.558
    01:27:47.637                : :01:27:47.512
    01:33:20.261                : :01:33:20.220

  • Peso: 2.72 GB

Sinopsis

Año 1206. Noruega ha sido arrasada por una guerra civil. El Rey está muriendo, y mientras su hijo no reconocido nace en secreto. La mitad del reino quiere acabar con el bebé, pero dos hombres, Torstein Skevla y Skjervald Skrukka, lo defenderán hasta la muerte en una huida que cambiará para siempre la historia del país. El niño se llamaba Håkon Håkonsen y sería rey de Noruega.

Español Latino AC3 2.0 DVD – Frances AC3 5.1 BLURAY

Ficha técnica

  • Titulo original: Birkebeinerne
  • Fecha de lanzamiento: 12-02-2016 (Norway)
  • Director: Nils Gaup
  • Género: Acción, Aventura, Drama
  • Puntuación: 0.0 0 votos
  • Duración:
    1h 39m

Imágenes, Capturas de la película

Video trailer de la película

Enlaces de descarga

Descargar El Ultimo Rey (2016) 1080p Latino
Descargar

dpeliculas

Aportes de DPeliculasHDmega la pass es:dpeliculashdmega.org Aportes de CinemaniaHD la pass es:cinemaniahdd.com
Guardado en : Acción , Aventura , Drama

PelícuDelas relacionadas

Comentarios 2
  • seba - 17 septiembre, 2017

    la subiran gris ??? gracias

    • dpelis

      Administrador
      - 17 septiembre, 2017

      se suben plateada, solo estrenos y clasicos