El Sr. Wakefield (2016) Full 1080p Castellano

927 vistas
1 estrella2 estrellas3 estrellas4 estrellas5 estrellas (Ninguna valoración todavía)
Cargando…

Información de El Sr. Wakefield (2016) Full 1080p Castellano

Datos de la película

  • Calidad: Full 1080p
  • Audio: Español Castellano DTS 5.1 BLURAY - Ingles DTS 5.1 BLURAY
  • Subtitulos: Español PGS - Ingles PGS
  • Resolución: 1920x1080p
  • Formato: MKV
  • Codec: H.264
  • Encoder: Dpelis
  • Mediainfo: Ver Ver
  • Wakefield (2016) Full 1080p Castellano.mkv
    Format                      : Matroska
    Format version              : Version 4 / Version 2
    File size                   : 4.28 GiB
    Duration                    : 1 h 44 min
    Overall bit rate            : 5 890 kb/s
    Movie name                  : DPeliculasHDMega.ORG
    Encoded date                : UTC 2017-09-08 23:08:16 / UTC 2017-09-06T04:04:51Z
    Writing application         : mkvmerge v10.0.0 ('To Drown In You') 64bit
    Writing library             : libebml v1.3.4 + libmatroska v1.4.5 / Lavf57.7.2

    Video
    ID                          : 1
    Format                      : AVC
    Format/Info                 : Advanced Video Codec
    Format profile              : [email protected]
    Format settings, CABAC      : Yes
    Format settings, ReFrames   : 4 frames
    Codec ID                    : V_MPEG4/ISO/AVC
    Duration                    : 1 h 44 min
    Bit rate                    : 1 681 kb/s
    Width                       : 1 920 pixels
    Height                      : 1 080 pixels
    Display aspect ratio        : 16:9
    Frame rate mode             : Constant
    Frame rate                  : 25.000 FPS
    Color space                 : YUV
    Chroma subsampling          : 4:2:0
    Bit depth                   : 8 bits
    Scan type                   : Progressive
    Bits/(Pixel*Frame)          : 0.032
    Stream size                 : 1.22 GiB (29%)
    Writing library             : x264 core 148 r2708 86b7198
    Encoding settings           : cabac=1 / ref=4 / deblock=1:0:0 / analyse=0x3:0x133 / me=esa / subme=10 / psy=1 / psy_rd=1.00:0.00 / mixed_ref=1 / me_range=24 / chroma_me=1 / trellis=2 / 8x8dct=1 / cqm=0 / deadzone=21,11 / fast_pskip=1 / chroma_qp_offset=-2 / threads=12 / lookahead_threads=2 / sliced_threads=0 / nr=0 / decimate=1 / interlaced=0 / bluray_compat=0 / constrained_intra=0 / bframes=8 / b_pyramid=2 / b_adapt=2 / b_bias=0 / direct=3 / weightb=1 / open_gop=0 / weightp=2 / keyint=250 / keyint_min=25 / scenecut=40 / intra_refresh=0 / rc_lookahead=60 / rc=crf / mbtree=1 / crf=20.0 / qcomp=0.60 / qpmin=0 / qpmax=69 / qpstep=4 / vbv_maxrate=62500 / vbv_bufsize=78125 / crf_max=0.0 / nal_hrd=none / filler=0 / ip_ratio=1.40 / aq=1:1.00
    Default                     : Yes
    Forced                      : No
    Color range                 : Limited
    Color primaries             : BT.709
    Transfer characteristics    : BT.709
    Matrix coefficients         : BT.709
    Statistics Tags Issue       : mkvmerge v10.0.0 ('To Drown In You') 64bit 2017-09-08 23:08:16 / mkvmerge v10.0.0 ('To Drown In You') 64bit 2017-09-08 23:08:16 / UTC 2017-09-06T04:04:51Z
    FromStats_BitRate           : 1791057
    FromStats_Duration          : 01:44:07.680000000
    FromStats_FrameCount        : 156192
    FromStats_StreamSize        : 1398743988

    Audio #1
    ID                          : 2
    Format                      : DTS
    Format/Info                 : Digital Theater Systems
    Format profile              : HRA / Core
    Mode                        : 16
    Format settings, Endianness : Big
    Codec ID                    : A_DTS
    Duration                    : 1 h 44 min
    Bit rate mode               : Constant
    Bit rate                    : 2 046 kb/s / 1 509 kb/s
    Channel(s)                  : 6 channels
    Channel positions           : Front: L C R, Side: L R, LFE
    Sampling rate               : 48.0 kHz
    Frame rate                  : 93.750 FPS (512 spf)
    Bit depth                   : 24 bits
    Compression mode            : Lossy
    Delay relative to video     : -21 ms
    Stream size                 : 1.49 GiB (35%)
    Language                    : Spanish
    Default                     : Yes
    Forced                      : No
    Statistics Tags Issue       : mkvmerge v10.0.0 ('To Drown In You') 64bit 2017-09-08 23:08:16 / mkvmerge v10.0.0 ('To Drown In You') 64bit 2017-09-08 23:08:16 / UTC 2017-09-06T04:04:51Z
    FromStats_BitRate           : 2045999
    FromStats_Duration          : 01:44:07.638000000
    FromStats_FrameCount        : 585716
    FromStats_StreamSize        : 1597833248

    Audio #2
    ID                          : 3
    Format                      : DTS
    Format/Info                 : Digital Theater Systems
    Format profile              : HRA / Core
    Mode                        : 16
    Format settings, Endianness : Big
    Codec ID                    : A_DTS
    Duration                    : 1 h 44 min
    Bit rate mode               : Constant
    Bit rate                    : 2 046 kb/s / 1 509 kb/s
    Channel(s)                  : 6 channels
    Channel positions           : Front: L C R, Side: L R, LFE
    Sampling rate               : 48.0 kHz
    Frame rate                  : 93.750 FPS (512 spf)
    Bit depth                   : 24 bits
    Compression mode            : Lossy
    Delay relative to video     : -21 ms
    Stream size                 : 1.49 GiB (35%)
    Language                    : English
    Default                     : No
    Forced                      : No
    Statistics Tags Issue       : mkvmerge v10.0.0 ('To Drown In You') 64bit 2017-09-08 23:08:16 / mkvmerge v10.0.0 ('To Drown In You') 64bit 2017-09-08 23:08:16 / UTC 2017-09-06T04:04:51Z
    FromStats_BitRate           : 2045999
    FromStats_Duration          : 01:44:07.638000000
    FromStats_FrameCount        : 585716
    FromStats_StreamSize        : 1597833248

    Text #1
    ID                          : 4
    Format                      : PGS
    Muxing mode                 : zlib
    Codec ID                    : S_HDMV/PGS
    Codec ID/Info               : Picture based subtitle format used on BDs/HD-DVDs
    Language                    : Spanish
    Default                     : No
    Forced                      : No
    Statistics Tags Issue       : mkvmerge v10.0.0 ('To Drown In You') 64bit 2017-09-08 23:08:16 / mkvmerge v10.0.0 ('To Drown In You') 64bit 2017-09-08 23:08:16 / UTC 2017-09-06T04:04:51Z
    FromStats_BitRate           : 4001
    FromStats_Duration          : 01:39:16.320000000
    FromStats_FrameCount        : 1658
    FromStats_StreamSize        : 2979032

    Text #2
    ID                          : 5
    Format                      : PGS
    Muxing mode                 : zlib
    Codec ID                    : S_HDMV/PGS
    Codec ID/Info               : Picture based subtitle format used on BDs/HD-DVDs
    Language                    : Spanish
    Default                     : No
    Forced                      : No
    Statistics Tags Issue       : mkvmerge v10.0.0 ('To Drown In You') 64bit 2017-09-08 23:08:16 / mkvmerge v10.0.0 ('To Drown In You') 64bit 2017-09-08 23:08:16 / UTC 2017-09-06T04:04:51Z
    FromStats_BitRate           : 29
    FromStats_Duration          : 00:22:54.960000000
    FromStats_FrameCount        : 6
    FromStats_StreamSize        : 5132

    Menu
    00:00:00.000                : :Chapter 1
    00:04:55.160                : :Chapter 2
    00:16:10.240                : :Chapter 3
    00:24:47.520                : :Chapter 4
    00:32:47.840                : :Chapter 5
    00:39:36.200                : :Chapter 6
    00:49:10.640                : :Chapter 7
    00:55:23.240                : :Chapter 8
    01:04:08.600                : :Chapter 9
    01:12:57.200                : :Chapter 10
    01:20:01.360                : :Chapter 11
    01:26:47.680                : :Chapter 12
    01:33:10.280                : :Chapter 13
    01:39:38.400                : :Chapter 14

  • Peso: 4.28 GB

Sinopsis

Un abogado Manhattan, después de encontrar un mapache en el ático de su casa, se queda en ella durante varios meses debido a un ataque de pánico.

SOLO SUBTITULOS SRT

Ficha técnica

Imágenes, Capturas de la película

Video trailer de la película

Enlaces de descarga

Descargar El Sr. Wakefield (2016) Full 1080p Castellano
Descargar

dpeliculas

Aportes de DPeliculasHDmega la pass es:dpeliculashdmega.org Aportes de CinemaniaHD la pass es:cinemaniahdd.com

PelícuDelas relacionadas

Comentarios 4