El Rey Arturo (2017) 1080p Latino

4.237 vistas
1 estrella2 estrellas3 estrellas4 estrellas5 estrellas (4 votos, promedio: 4,00 de 5)
Cargando…

Información de El Rey Arturo (2017) 1080p Latino

Datos de la película

  • Calidad: 1080p
  • Audio: Español Latino AC3 5.1 BLURAY - Ingles AC3 5.1 BLURAY
  • Subtitulos: Español Latino SRT - Ingles SRT
  • Resolución: 1920x800p
  • Formato: MKV
  • Codec: H.264
  • Encoder: Dpelis
  • Mediainfo: Ver Ver
  • King Arthur Legend of the Sword (2017) 1080p Latino.mkv
    Format                      : Matroska
    Format version              : Version 4 / Version 2
    File size                   : 3.76 GiB
    Duration                    : 2 h 6 min
    Overall bit rate            : 4 270 kb/s
    Movie name                  : DPeliculasHDMega.ORG
    Encoded date                : UTC 2017-07-26 02:26:34
    Writing application         : mkvmerge v10.0.0 ('To Drown In You') 64bit
    Writing library             : libebml v1.3.4 + libmatroska v1.4.5

    Video
    ID                          : 1
    Format                      : AVC
    Format/Info                 : Advanced Video Codec
    Format profile              : [email protected]
    Format settings, CABAC      : Yes
    Format settings, ReFrames   : 4 frames
    Codec ID                    : V_MPEG4/ISO/AVC
    Duration                    : 2 h 6 min
    Bit rate                    : 3 500 kb/s
    Width                       : 1 920 pixels
    Height                      : 800 pixels
    Display aspect ratio        : 2.40:1
    Frame rate mode             : Constant
    Frame rate                  : 23.976 (24000/1001) FPS
    Color space                 : YUV
    Chroma subsampling          : 4:2:0
    Bit depth                   : 8 bits
    Scan type                   : Progressive
    Bits/(Pixel*Frame)          : 0.095
    Stream size                 : 3.03 GiB (80%)
    Writing library             : x264 core 148 r2708 86b7198
    Encoding settings           : cabac=1 / ref=3 / deblock=1:0:0 / analyse=0x3:0x113 / me=hex / subme=7 / psy=1 / psy_rd=1.00:0.00 / mixed_ref=1 / me_range=16 / chroma_me=1 / trellis=1 / 8x8dct=1 / cqm=0 / deadzone=21,11 / fast_pskip=1 / chroma_qp_offset=-2 / threads=12 / lookahead_threads=2 / sliced_threads=0 / nr=0 / decimate=1 / interlaced=0 / bluray_compat=0 / constrained_intra=0 / bframes=3 / b_pyramid=2 / b_adapt=1 / b_bias=0 / direct=1 / weightb=1 / open_gop=0 / weightp=2 / keyint=240 / keyint_min=24 / scenecut=40 / intra_refresh=0 / rc_lookahead=40 / rc=abr / mbtree=1 / bitrate=3500 / ratetol=1.0 / qcomp=0.60 / qpmin=0 / qpmax=69 / qpstep=4 / vbv_maxrate=62500 / vbv_bufsize=78125 / nal_hrd=none / filler=0 / ip_ratio=1.40 / aq=1:1.00
    Default                     : Yes
    Forced                      : No
    Color range                 : Limited
    Color primaries             : BT.709
    Transfer characteristics    : BT.709
    Matrix coefficients         : BT.709

    Audio #1
    ID                          : 2
    Format                      : AC-3
    Format/Info                 : Audio Coding 3
    Format settings, Endianness : Big
    Codec ID                    : A_AC3
    Duration                    : 2 h 6 min
    Bit rate mode               : Constant
    Bit rate                    : 448 kb/s
    Channel(s)                  : 6 channels
    Channel positions           : Front: L C R, Side: L R, LFE
    Sampling rate               : 48.0 kHz
    Frame rate                  : 31.250 FPS (1536 spf)
    Bit depth                   : 16 bits
    Compression mode            : Lossy
    Delay relative to video     : -5 ms
    Stream size                 : 404 MiB (10%)
    Service kind                : Complete Main
    Default                     : Yes
    Forced                      : No

    Audio #2
    ID                          : 3
    Format                      : AC-3
    Format/Info                 : Audio Coding 3
    Format settings, Endianness : Big
    Codec ID                    : A_AC3
    Duration                    : 2 h 6 min
    Bit rate mode               : Constant
    Bit rate                    : 384 kb/s
    Channel(s)                  : 6 channels
    Channel positions           : Front: L C R, Side: L R, LFE
    Sampling rate               : 48.0 kHz
    Frame rate                  : 31.250 FPS (1536 spf)
    Bit depth                   : 16 bits
    Compression mode            : Lossy
    Delay relative to video     : -5 ms
    Stream size                 : 347 MiB (9%)
    Language                    : English
    Service kind                : Complete Main
    Default                     : No
    Forced                      : No

    Text #1
    ID                          : 4
    Format                      : UTF-8
    Codec ID                    : S_TEXT/UTF8
    Codec ID/Info               : UTF-8 Plain Text
    Duration                    : 1 h 57 min
    Bit rate                    : 40 b/s
    Count of elements           : 1264
    Stream size                 : 34.7 KiB (0%)
    Default                     : Yes
    Forced                      : No

    Text #2
    ID                          : 5
    Format                      : UTF-8
    Codec ID                    : S_TEXT/UTF8
    Codec ID/Info               : UTF-8 Plain Text
    Duration                    : 1 h 56 min
    Bit rate                    : 49 b/s
    Count of elements           : 1451
    Stream size                 : 42.5 KiB (0%)
    Default                     : No
    Forced                      : No

    Menu
    00:00:00.000                : en:00:00:00.000
    00:12:43.221                : en:00:12:43.221
    00:21:05.347                : en:00:21:05.347
    00:32:32.659                : en:00:32:32.659
    00:43:09.378                : en:00:43:09.378
    00:56:47.988                : en:00:56:47.988
    01:06:48.546                : en:01:06:48.546
    01:14:13.032                : en:01:14:13.032
    01:23:44.520                : en:01:23:44.394
    01:36:36.791                : en:01:36:36.791
    01:46:57.244                : en:01:46:57.244
    01:58:58.923                : en:01:58:58.798

  • Peso: 3.76 GB

Sinopsis

El Rey Arturo 2017 1080p Latino, ya esta disponible, gracias a itunes por tener en venta la version webdl, Es una pelicula tambien conocida King King Arthur: Legend of the Sword hd latino, El audaz Arturo (Charlie Hunnam) es un joven que vive en las calles de Londonium, actual Londres, donde dirige a su pandilla por los callejones de la ciudad. Su vida da un giro inesperado al toparse con la espada Excalibur, que marcará su futuro. Será entonces cuando Arturo se vea obligado a tomar algunas decisiones difíciles. Por un lado, tendrá que aprender a dominar esta espada y los poderes que conlleva. Además, se encontrará con nuevos personajes como una joven misteriosa llamada Guinevere (Astrid Bergès-Frisbey), y con nuevos retos como defender al pueblo de la tiranía del malvado Vortigern (Jude Law).

El director británico Guy Ritchie (Operación U.N.C.L.E., Sherlock Holmes: Juego de sombras, RocknRolla) se pone detrás de las cámaras para revivir esta nueva versión cinematográfica de la clásica historia del Rey Arturo. Sus protagonistas son Charlie Hunnam (La cumbre escarlata, Hijos de la Anarquía), Astrid Bergès-Frisbey (El sexo de los ángeles, Piratas del Caribe. En mareas misteriosas), Djimon Hounsou (La leyenda de tarzan, Fast & Furious 7), Jude Law (El gran hotel Budapest, Anna Karenina), Aidan Gillen (Juego de tronos, El corredor del laberinto: Las pruebas), Annabelle Wallis (La momia, Peaky Blinders), Freddie Fox (Victo

Ficha técnica

  • Titulo original: King Arthur: Legend of the Sword
  • Fecha de lanzamiento: 01-03-2017 (United Kingdom)
  • Director: Antony Smith
  • Género: Acción
  • Puntuación: 4.0 4 votos
  • Duración:
    1h 39m

Imágenes, Capturas de la película

Video trailer de la película

Enlaces de descarga

Descargar El Rey Arturo (2017) 1080p Latino
Descargar

dpeliculas

Aportes de DPeliculasHDmega la pass es:dpeliculashdmega.org Aportes de CinemaniaHD la pass es:cinemaniahdd.com
Guardado en : Acción

PelícuDelas relacionadas

  • La torre oscura (2017) Full 1080p Latino

    2017
    La torre oscura (2017) Full 1080p Latino

    0.0 1 h 34 min 2017

    Un paisaje del viejo oeste perteneciente a un mundo moribundo, en el cual el tiempo no corre de forma...

    Director: Susan Malerstein

    Género: Acción

    Actores: Zak Rowlands

  • La torre oscura (2017) 1080p Latino

    2017
    La torre oscura (2017) 1080p Latino

    0.0 1 h 34 min 2017

    La historia gira en torno a Roland Deschain, último miembro de una orden de caballería denominada Pistoleros....

    Director: Susan Malerstein

    Género: Acción

    Actores: Zak Rowlands

  • Ahora me ves 2 (2016) 2160p 4K UHD HDR Latino-Ingles

    2016
    Ahora me ves 2 (2016) 2160p 4K UHD HDR Latino-Ingles

    0.0 1h 55m 2016

    Descargar gratis Ahora me ves 2 (2016) 2160p 4K UHD HDR Latino-Ingles. Un año dspués de despistar al...

    Director: Jon M. Chu

    Género: Acción

    Actores: Zoey Callandria Jones

Comentarios 13
  • Draf - 30 julio, 2017

    Hola, tengo una duda, la película dice que pesa 3.76 GB y los enlaces son 2 partes de 2 GB es un error?? saludos y gracias

    • dpelis

      Administrador
      - 30 julio, 2017

      1 parte d 2gb

  • slash - 26 julio, 2017

    Pregunta cine, andaba descargando el webdl, pero veo que ya pusiste la negra, la pregunta es, ¿tardara mucho la plateada? Bueno, me la bajo de todas formas, muchas gracias cine.

    • dpelis

      Administrador
      - 26 julio, 2017

      manana a mas tardar misma hora saludos

  • Jhefferson - 26 julio, 2017

    Muchas Gracias por este gran aporte y quisiera saber si habra version plateada y para cuando estaria o si no para descargar esta version. SALUDOS:D

    • dpelis

      Administrador
      - 26 julio, 2017

      manana por la misma hra

      • Jhefferson - 26 julio, 2017

        Bueno Gracias por responder estare esperando la version plateada todas las peliculas las descargo de aqui muchas gracias por todo lo que suben en tan genial calidad es una Excelente Pagina 😀

  • Johnny Mebaño - 25 julio, 2017

    Hola, chicos! Les cuento que tengo problemas para ver los links de descarga. Aparecen varias ventanas emergentes (incluso para escribir este mensaje) y me parece bien que les sirva para ganar algo por su trabajo, pero quisiera llegar a donde hay que llegar para descargar la película. Mi Adblock está desactivado y aún así, no aparecen los enlaces. Qué se puede hacer? No aparecen los anuncios en los que debería hacer clic. Aunque espere los 30 segundos, tampoco puedo acceder a los enlaces, etc.

    • dpelis

      Administrador
      - 25 julio, 2017

      borre cache y siga los pasos
      https://dpeliculashdmega.org/como-descargar/

      • Johnny Mebaño - 26 julio, 2017

        Estimados amigos: Me temo que lo que muestran en el tutorial no es lo que pasa en realidad. Cuando uno hae clic en “descarga” (debajo de Paste público), se abre la página con el botón que dice “Haz clic en el botón para ir al enlace”. Debajo hay un botón que en el video aparece en verde, pero en realidad se muestra azul. La página siguiente, que supuestamente tendría que mostrar un anuncio, en verdad no lo muestra. “Haz clic en un anuncio y espere 30 segundos…”, pero no hay anuncio visible para hacer clic. Bueno, espero que puedan verificar esto. Gracias igual!