El que busca, encuentra (2017) 1080p Latino

2.258 vistas
1 estrella2 estrellas3 estrellas4 estrellas5 estrellas (Ninguna valoración todavía)
Cargando…

Información de El que busca, encuentra (2017) 1080p Latino

Datos de la película

  • Calidad: 1080p
  • Audio: Español Latino AC3 5.1 BLURAY
  • Subtitulos: No
  • Resolución: 1920x856p
  • Formato: MKV
  • Codec: H.264
  • Encoder: Dpelis
  • Mediainfo: Ver Ver
  • El.que.busca.encuentra.2017.1080p.latino.mkv
    Format                      : Matroska
    Format version              : Version 4 / Version 2
    File size                   : 2.47 GiB
    Duration                    : 1 h 33 min
    Overall bit rate            : 3 803 kb/s
    Encoded date                : UTC 2017-06-04 20:34:03
    Writing application         : mkvmerge v10.0.0 ('To Drown In You') 64bit
    Writing library             : libebml v1.3.4 + libmatroska v1.4.5

    Video
    ID                          : 1
    Format                      : AVC
    Format/Info                 : Advanced Video Codec
    Format profile              : [email protected]
    Format settings, CABAC      : Yes
    Format settings, ReFrames   : 4 frames
    Codec ID                    : V_MPEG4/ISO/AVC
    Duration                    : 1 h 33 min
    Bit rate                    : 3 500 kb/s
    Width                       : 1 920 pixels
    Height                      : 856 pixels
    Display aspect ratio        : 2.25:1
    Frame rate mode             : Constant
    Frame rate                  : 23.976 (24000/1001) FPS
    Color space                 : YUV
    Chroma subsampling          : 4:2:0
    Bit depth                   : 8 bits
    Scan type                   : Progressive
    Bits/(Pixel*Frame)          : 0.089
    Stream size                 : 2.22 GiB (90%)
    Writing library             : x264 core 148 r2708 86b7198
    Encoding settings           : cabac=1 / ref=3 / deblock=1:0:0 / analyse=0x3:0x113 / me=hex / subme=7 / psy=1 / psy_rd=1.00:0.00 / mixed_ref=1 / me_range=16 / chroma_me=1 / trellis=1 / 8x8dct=1 / cqm=0 / deadzone=21,11 / fast_pskip=1 / chroma_qp_offset=-2 / threads=12 / lookahead_threads=2 / sliced_threads=0 / nr=0 / decimate=1 / interlaced=0 / bluray_compat=0 / constrained_intra=0 / bframes=3 / b_pyramid=2 / b_adapt=1 / b_bias=0 / direct=1 / weightb=1 / open_gop=0 / weightp=2 / keyint=240 / keyint_min=24 / scenecut=40 / intra_refresh=0 / rc_lookahead=40 / rc=abr / mbtree=1 / bitrate=3500 / ratetol=1.0 / qcomp=0.60 / qpmin=0 / qpmax=69 / qpstep=4 / vbv_maxrate=62500 / vbv_bufsize=78125 / nal_hrd=none / filler=0 / ip_ratio=1.40 / aq=1:1.00
    Default                     : Yes
    Forced                      : No
    Color range                 : Limited
    Color primaries             : BT.709
    Transfer characteristics    : BT.709
    Matrix coefficients         : BT.709

    Audio
    ID                          : 2
    Format                      : AC-3
    Format/Info                 : Audio Coding 3
    Format settings, Endianness : Big
    Codec ID                    : A_AC3
    Duration                    : 1 h 33 min
    Bit rate mode               : Constant
    Bit rate                    : 384 kb/s
    Channel(s)                  : 6 channels
    Channel positions           : Front: L C R, Side: L R, LFE
    Sampling rate               : 48.0 kHz
    Frame rate                  : 31.250 FPS (1536 spf)
    Bit depth                   : 16 bits
    Compression mode            : Lossy
    Delay relative to video     : -5 ms
    Stream size                 : 256 MiB (10%)
    Service kind                : Complete Main
    Default                     : Yes
    Forced                      : No

    Menu
    00:00:00.000                : en:Chapter 1
    00:07:57.811                : en:Chapter 2
    00:14:34.749                : en:Chapter 3
    00:22:44.280                : en:Chapter 4
    00:29:25.555                : en:Chapter 5
    00:38:06.284                : en:Chapter 6
    00:45:44.450                : en:Chapter 7
    00:55:52.307                : en:Chapter 8
    01:04:27.530                : en:Chapter 9
    01:11:18.441                : en:Chapter 10
    01:18:59.818                : en:Chapter 11
    01:26:13.043                : en:Chapter 12

  • Peso: 2.47 GB

Sinopsis

Cuenta la historia de Marcos y Esperanza, dos niños que se enamoran al perderse en el Estadio Azteca durante un partido de futbol. Más de 20 años después -en los que no se han vuelto a ver- la vida los ha llevado por caminos distintos, pero el recuerdo de ese amor infantil es tan fuerte que consiguen reencontrarse y tener una cita mágica. Sin embargo, por una terrible confusión se separan nuevamente, por lo que tendrán que descubrir la manera de volver a estar juntos

Ficha técnica

  • Titulo original: El que busca, encuentra
  • Fecha de lanzamiento: 24-02-2017
  • Director: Pedro Pablo Ibarra
  • Género: Comedia, Romance
  • Puntuación: 0.0 0 votos
  • Duración:
    1h 33m

Imágenes, Capturas de la película

Video trailer de la película

Enlaces de descarga

Descargar El que busca, encuentra (2017) 1080p Latino
Descargar

dpeliculas

Aportes de DPeliculasHDmega la pass es:dpeliculashdmega.org Aportes de CinemaniaHD la pass es:cinemaniahdd.com
Guardado en : Comedia , Romance

PelícuDelas relacionadas

  • Spark: A Space Tail (2016) 1080p Latino

    2017
    Spark: A Space Tail (2016) 1080p Latino

    0.0 1h 30m 2017

    Hace 13 años el malvado General Zhong tomó el control del planeta Bana. Ahora no solo quiere gobernar...

    Director: Aaron Woodley

    Género: Animación

    Actores: Susan Sarandon

  • Una noche fuera de control (2017) 1080p Latino

    2017
    Una noche fuera de control (2017) 1080p Latino

    0.0 1h 40m 2017

    Descargar Rough Night 1080p latino, tambien conocida como Una noche fuera de control  Latino, Pelicula...

    Director: Lucia Aniello

    Género: Comedia

    Actores: Zoë Kravitz

  • Baywatch (2017) UNRATED Full 1080p Latino

    2017
    Baywatch (2017) UNRATED Full 1080p Latino

    3.0 2h 1m 2017

    'Los vigilantes de la playa' narra la historia del esforzado socorrista Mitch Buchannon (Johnson) y su...

    Director: Seth Gordon

    Género: Acción

    Actores: Zachary Vazquez

Comentarios 4
  • martin omar - 24 Junio, 2017

    problemas con los acortadores… 🙁

    • dpelis

      Administrador
      - 24 Junio, 2017

      reparado

  • Ragnarok - 06 Junio, 2017

    disculpen de casualidad no van a subir la de No Manches Frigida con Omar Chaparro y Martha Higareda?

    • dpelis

      Administrador
      - 06 Junio, 2017

      no tengo los bd.