El protegido (2000) Full 1080p Latino

2.573 vistas
1 estrella2 estrellas3 estrellas4 estrellas5 estrellas (1 votos, promedio: 5,00 de 5)
Cargando…

Información de El protegido (2000) Full 1080p Latino

Unbreakable 1080p latino

Datos de la película

  • Calidad: Full 1080p
  • Audio: Español Latino AC3 2.0 DVD - Ingles AC3 5.1 BLURAY
  • Subtitulos: Español Latino PGS - Ingles PGS
  • Resolución: 1920x1080p
  • Formato: MKV
  • Codec: H.264
  • Encoder: Dpelis
  • Mediainfo: Ver Ver
  • El Protegido 2000 HD FULL 1080p Latino.mkv
    Format                      : Matroska
    Format version              : Version 4 / Version 2
    File size                   : 3.67 GiB
    Duration                    : 1 h 46 min
    Overall bit rate            : 4 926 kb/s
    Movie name                  : DPeliculasHDMega.ORG
    Encoded date                : UTC 2017-04-22 23:39:31
    Writing application         : mkvmerge v10.0.0 ('To Drown In You') 64bit
    Writing library             : libebml v1.3.4 + libmatroska v1.4.5

    Video
    ID                          : 1
    Format                      : AVC
    Format/Info                 : Advanced Video Codec
    Format profile              : [email protected]
    Format settings, CABAC      : Yes
    Format settings, ReFrames   : 4 frames
    Codec ID                    : V_MPEG4/ISO/AVC
    Duration                    : 1 h 46 min
    Bit rate                    : 4 080 kb/s
    Width                       : 1 920 pixels
    Height                      : 1 080 pixels
    Display aspect ratio        : 16:9
    Frame rate mode             : Constant
    Frame rate                  : 23.976 (24000/1001) FPS
    Color space                 : YUV
    Chroma subsampling          : 4:2:0
    Bit depth                   : 8 bits
    Scan type                   : Progressive
    Bits/(Pixel*Frame)          : 0.082
    Stream size                 : 3.04 GiB (83%)
    Writing library             : x264 core 148 r2708 86b7198
    Encoding settings           : cabac=1 / ref=4 / deblock=1:0:0 / analyse=0x3:0x133 / me=esa / subme=10 / psy=1 / psy_rd=1.00:0.00 / mixed_ref=1 / me_range=24 / chroma_me=1 / trellis=2 / 8x8dct=1 / cqm=0 / deadzone=21,11 / fast_pskip=1 / chroma_qp_offset=-2 / threads=12 / lookahead_threads=2 / sliced_threads=0 / nr=0 / decimate=1 / interlaced=0 / bluray_compat=0 / constrained_intra=0 / bframes=8 / b_pyramid=2 / b_adapt=2 / b_bias=0 / direct=3 / weightb=1 / open_gop=0 / weightp=2 / keyint=240 / keyint_min=24 / scenecut=40 / intra_refresh=0 / rc_lookahead=60 / rc=crf / mbtree=1 / crf=20.0 / qcomp=0.60 / qpmin=0 / qpmax=69 / qpstep=4 / vbv_maxrate=62500 / vbv_bufsize=78125 / crf_max=0.0 / nal_hrd=none / filler=0 / ip_ratio=1.40 / aq=1:1.00
    Default                     : Yes
    Forced                      : No
    Color range                 : Limited
    Color primaries             : BT.709
    Transfer characteristics    : BT.709
    Matrix coefficients         : BT.709

    Audio #1
    ID                          : 2
    Format                      : AC-3
    Format/Info                 : Audio Coding 3
    Format settings, Endianness : Big
    Codec ID                    : A_AC3
    Duration                    : 1 h 46 min
    Bit rate mode               : Constant
    Bit rate                    : 192 kb/s
    Channel(s)                  : 2 channels
    Channel positions           : Front: L R
    Sampling rate               : 48.0 kHz
    Frame rate                  : 31.250 FPS (1536 spf)
    Bit depth                   : 16 bits
    Compression mode            : Lossy
    Delay relative to video     : -5 ms
    Stream size                 : 146 MiB (4%)
    Language                    : Spanish
    Service kind                : Complete Main
    Default                     : Yes
    Forced                      : No

    Audio #2
    ID                          : 3
    Format                      : AC-3
    Format/Info                 : Audio Coding 3
    Format settings, Endianness : Big
    Codec ID                    : A_AC3
    Duration                    : 1 h 46 min
    Bit rate mode               : Constant
    Bit rate                    : 640 kb/s
    Channel(s)                  : 6 channels
    Channel positions           : Front: L C R, Side: L R, LFE
    Sampling rate               : 48.0 kHz
    Frame rate                  : 31.250 FPS (1536 spf)
    Bit depth                   : 16 bits
    Compression mode            : Lossy
    Delay relative to video     : -5 ms
    Stream size                 : 488 MiB (13%)
    Language                    : English
    Service kind                : Complete Main
    Default                     : No
    Forced                      : No

    Text #1
    ID                          : 4
    Format                      : PGS
    Muxing mode                 : zlib
    Codec ID                    : S_HDMV/PGS
    Codec ID/Info               : Picture based subtitle format used on BDs/HD-DVDs
    Duration                    : 1 h 46 min
    Bit rate                    : 5 341 b/s
    Count of elements           : 1860
    Stream size                 : 4.07 MiB (0%)
    Language                    : Spanish
    Default                     : Yes
    Forced                      : No

    Text #2
    ID                          : 5
    Format                      : PGS
    Muxing mode                 : zlib
    Codec ID                    : S_HDMV/PGS
    Codec ID/Info               : Picture based subtitle format used on BDs/HD-DVDs
    Duration                    : 1 h 42 min
    Bit rate                    : 5 833 b/s
    Count of elements           : 1876
    Stream size                 : 4.26 MiB (0%)
    Language                    : English
    Default                     : No
    Forced                      : No

    Text #3
    ID                          : 6
    Format                      : PGS
    Muxing mode                 : zlib
    Codec ID                    : S_HDMV/PGS
    Codec ID/Info               : Picture based subtitle format used on BDs/HD-DVDs
    Duration                    : 1 h 46 min
    Bit rate                    : 138 b/s
    Count of elements           : 42
    Stream size                 : 108 KiB (0%)
    Title                       : Forzados
    Language                    : Spanish
    Default                     : No
    Forced                      : No

    Menu
    00:00:00.000                : en:Chapter 1
    00:08:43.982                : en:Chapter 2
    00:09:50.673                : en:Chapter 3
    00:14:56.979                : en:Chapter 4
    00:16:30.948                : en:Chapter 5
    00:20:57.339                : en:Chapter 6
    00:25:04.920                : en:Chapter 7
    00:32:26.069                : en:Chapter 8
    00:34:37.158                : en:Chapter 9
    00:36:28.395                : en:Chapter 10
    00:40:55.703                : en:Chapter 11
    00:43:22.934                : en:Chapter 12
    00:49:59.038                : en:Chapter 13
    00:54:53.040                : en:Chapter 14
    00:56:57.414                : en:Chapter 15
    01:00:00.097                : en:Chapter 16
    01:02:51.393                : en:Chapter 17
    01:04:35.038                : en:Chapter 18
    01:07:37.262                : en:Chapter 19
    01:12:16.833                : en:Chapter 20
    01:13:28.446                : en:Chapter 21
    01:17:33.315                : en:Chapter 22
    01:22:19.685                : en:Chapter 23
    01:31:38.618                : en:Chapter 24
    01:33:13.588                : en:Chapter 25
    01:35:53.081                : en:Chapter 26
    01:37:49.947                : en:Chapter 27
    01:42:15.463                : en:Chapter 28
    01:46:37.224                : en:Chapter 29

  • Peso: 3.67 GB

Sinopsis

Philadelphia. 1961. Un niño nace el color en unos grandes almacenes. Un médico viene a ver cómo la madre y el niño, y la mujer horrorizada pregunta si el niño ha caído porque ha roto brazos y las piernas. Philadelphia. 2000. Un hombre llamado David Dunn está en el expreso de Nueva York a Filadelfia en el camino a casa después de una entrevista de trabajo en la ciudad de los rascacielos. En el tren una conversación con una mujer atractiva, pero ella cree que quiere coquetear y casas de cambio. Un momento después, un accidente trágico.

Ficha técnica

Imágenes, Capturas de la película

Video trailer de la película

Enlaces de descarga

Descargar El protegido (2000) Full 1080p Latino
Descargar

dpeliculas

Aportes de DPeliculasHDmega la pass es:dpeliculashdmega.org Aportes de CinemaniaHD la pass es:cinemaniahdd.com
Guardado en : Acción , Fantasía , Suspense

PelícuDelas relacionadas

  • La momia (2017) Webdl 1080p Latino

    2017
    La momia (2017) Webdl 1080p Latino

    4.0 1h 50m 2017

    Descargar La momia 2017 1080p webdl  Latino, esta pelicula estara disponible con audio latino final...

    Director: Jo Beckett

    Género: Acción

    Actores: Vera Chok

  • Batman & Harley Quinn (2017) Full Latino

    2017
    Batman & Harley Quinn (2017) Full Latino

    0.0 0h 0m 2017

    Descargar gratis Batman & Harley Quinn (2017) Full Latino. Batman y Nighwing debrán unir fuerzas...

    Director: Sam Liu

    Género: Acción

    Actores: Trevor Devall

  • Snowden (2016) 1080p Latino

    2016
    Snowden (2016) 1080p Latino

    0.0 2h 15m 2016

    Basada en el libro "The Snowden files. The inside story of the world's most wanted man" escrito por Luke...

    Director: Oliver Stone

    Género: Drama

    Actores: Zachary Quinto

Comentarios 12
  • slash - 17 Julio, 2017

    Gracias cine, dejo forzados de la película en srt. Deberías hacer sexto sentido y los huéspedes que son de este mismo directos, saludos.

    https://mega.nz/#F!U5MUxAyA!7Uxlf_eCs7J8lZpFzbzo0A

  • NATALIA - 25 Abril, 2017

    Suban Bates Motel por favaaaaar !! 🙁 no la encuentro en ningún sitio 🙁 se ganarían el cielo

  • Matias - 24 Abril, 2017

    Son lo máximo en todo … Muchas Gracias

  • Steven - 23 Abril, 2017

    Muchas gracias, después de ver Split moría por ver esta. ¡Son los mejores!

  • Aldair Jesus - 23 Abril, 2017

    Muchisimas gracias! La estaba esperando con ansias 😀

    • dpelis

      Administrador
      - 23 Abril, 2017

      que la disfrutes, saludos

      • Gerardo - 23 Abril, 2017

        Igual yo la esperaba con muchas ansias, muchísimas gracias 😀

        • dpelis

          Administrador
          - 23 Abril, 2017

          eso nos motiva que les guste y sus comentarios, para seguir aportando, saludos

          • Aldair Jesus - 23 Abril, 2017

            Solo hay un unico detalle con la pelicula, el audio latino suena demasiado bajo :/ de ahi en mas, todo esta perfecto.

            • dpelis

              Administrador
              - 23 Abril, 2017

              hola. estamos hablando de un audio DVD, stereo, Eso es lo mas normal que existe con DVD de peliculas viejitas, no hay bluray latino, saludos

          • oscar - 23 Abril, 2017

            amigo cuando sale el capitulo 14 de twd gracias

            • dpelis

              Administrador
              - 23 Abril, 2017

              no salio doblado estimado