Advertise here

El precio del poder (1983) Full 1080p Latino

735 vistas
1 estrella2 estrellas3 estrellas4 estrellas5 estrellas (2 votos, promedio: 4,50 de 5)
Cargando…

Información de El precio del poder (1983) Full 1080p Latino

Datos de la película

  • Calidad: Full 1080p
  • Audio: Español Latino DTS 2.0 BLURAY - Ingles DTS 5.1 BLURAY
  • Subtitulos: Español Latino PGS - Ingles PGS
  • Resolución: 1920X1080
  • Formato: MKV
  • Codec: H.264
  • Encoder: Dpelis
  • Mediainfo: Clic para Mostrar Datos Ver
  • Format                                   : Matroska
    Format version                           : Version 4 / Version 2
    File size                                : 17.2 GiB
    Duration                                 : 2 h 50 min
    Overall bit rate                         : 14.5 Mb/s
    Movie name                               : dpeliculashdmega.org
    Encoded date                             : UTC 2017-11-08 03:37:54 / UTC 2017-11-06T10:37:11Z
    Writing application                      : mkvmerge v15.0.0 ('Duel with the Devil') 64-bit
    Writing library                          : libebml v1.3.5 + libmatroska v1.4.5 / Lavf57.7.2

    Video
    ID                                       : 1
    Format                                   : AVC
    Format/Info                              : Advanced Video Codec
    Format profile                           : [email protected]
    Format settings                          : CABAC / 4 Ref Frames
    Format settings, CABAC                   : Yes
    Format settings, RefFrames               : 4 frames
    Codec ID                                 : V_MPEG4/ISO/AVC
    Duration                                 : 2 h 50 min
    Bit rate                                 : 11.9 Mb/s
    Width                                    : 1 920 pixels
    Height                                   : 1 080 pixels
    Display aspect ratio                     : 16:9
    Frame rate mode                          : Constant
    Frame rate                               : 23.976 (24000/1001) FPS
    Color space                              : YUV
    Chroma subsampling                       : 4:2:0
    Bit depth                                : 8 bits
    Scan type                                : Progressive
    Bits/(Pixel*Frame)                       : 0.240
    Stream size                              : 14.2 GiB (82%)
    Title                                    : El precio del poder (1983) Full 1080p Latino
    Writing library                          : x264 core 148 r2708 86b7198
    Encoding settings                        : cabac=1 / ref=4 / deblock=1:0:0 / analyse=0x3:0x133 / me=esa / subme=10 / psy=1 / psy_rd=1.00:0.00 / mixed_ref=1 / me_range=24 / chroma_me=1 / trellis=2 / 8x8dct=1 / cqm=0 / deadzone=21,11 / fast_pskip=1 / chroma_qp_offset=-2 / threads=34 / lookahead_threads=5 / sliced_threads=0 / nr=0 / decimate=1 / interlaced=0 / bluray_compat=0 / constrained_intra=0 / bframes=8 / b_pyramid=2 / b_adapt=2 / b_bias=0 / direct=3 / weightb=1 / open_gop=0 / weightp=2 / keyint=240 / keyint_min=24 / scenecut=40 / intra_refresh=0 / rc_lookahead=60 / rc=crf / mbtree=1 / crf=20.0 / qcomp=0.60 / qpmin=0 / qpmax=69 / qpstep=4 / vbv_maxrate=62500 / vbv_bufsize=78125 / crf_max=0.0 / nal_hrd=none / filler=0 / ip_ratio=1.40 / aq=1:1.00
    Language                                 : English
    Default                                  : Yes
    Forced                                   : No
    Color range                              : Limited
    Color primaries                          : BT.709
    Transfer characteristics                 : BT.709
    Matrix coefficients                      : BT.709
    Statistics Tags Issue                    : mkvmerge v15.0.0 ('Duel with the Devil') 64-bit 2017-11-08 03:37:54 / mkvmerge v15.0.0 ('Duel with the Devil') 64-bit 2017-11-08 03:37:54 / UTC 2017-11-06T10:37:11Z
    FromStats_BitRate                        : 12193639
    FromStats_Duration                       : 02:50:00.149000000
    FromStats_FrameCount                     : 244559
    FromStats_StreamSize                     : 15547117252

    Audio #1
    ID                                       : 2
    Format                                   : DTS
    Format/Info                              : Digital Theater Systems
    Mode                                     : 16
    Format settings, Endianness              : Big
    Codec ID                                 : A_DTS
    Duration                                 : 2 h 50 min
    Bit rate mode                            : Constant
    Bit rate                                 : 768 kb/s
    Channel(s)                               : 2 channels
    Channel positions                        : Front: L R
    Sampling rate                            : 48.0 kHz
    Frame rate                               : 93.750 FPS (512 SPF)
    Bit depth                                : 24 bits
    Compression mode                         : Lossy
    Stream size                              : 934 MiB (5%)
    Title                                    : Latino-DTS
    Language                                 : Spanish
    Default                                  : Yes
    Forced                                   : No
    Statistics Tags Issue                    : mkvmerge v15.0.0 ('Duel with the Devil') 64-bit 2017-11-08 03:37:54 / mkvmerge v15.0.0 ('Duel with the Devil') 64-bit 2017-11-08 03:37:54 / UTC 2017-11-06T10:37:11Z
    FromStats_BitRate                        : 767999
    FromStats_Duration                       : 02:50:00.150000000
    FromStats_FrameCount                     : 956264
    FromStats_StreamSize                     : 979214336

    Audio #2
    ID                                       : 3
    Format                                   : DTS
    Format/Info                              : Digital Theater Systems
    Mode                                     : 16
    Format settings, Endianness              : Big
    Codec ID                                 : A_DTS
    Duration                                 : 2 h 50 min
    Bit rate mode                            : Constant
    Bit rate                                 : 1 509 kb/s
    Channel(s)                               : 6 channels
    Channel positions                        : Front: L C R, Side: L R, LFE
    Sampling rate                            : 48.0 kHz
    Frame rate                               : 93.750 FPS (512 SPF)
    Bit depth                                : 24 bits
    Compression mode                         : Lossy
    Stream size                              : 1.79 GiB (10%)
    Title                                    : Ingles-DTS
    Language                                 : English
    Default                                  : No
    Forced                                   : No
    Statistics Tags Issue                    : mkvmerge v15.0.0 ('Duel with the Devil') 64-bit 2017-11-08 03:37:54 / mkvmerge v15.0.0 ('Duel with the Devil') 64-bit 2017-11-08 03:37:54 / UTC 2017-11-06T10:37:11Z
    FromStats_BitRate                        : 1508999
    FromStats_Duration                       : 02:50:00.150000000
    FromStats_FrameCount                     : 956264
    FromStats_StreamSize                     : 1924003168

    Text #1
    ID                                       : 4
    Format                                   : PGS
    Muxing mode                              : zlib
    Codec ID                                 : S_HDMV/PGS
    Codec ID/Info                            : Picture based subtitle format used on BDs/HD-DVDs
    Language                                 : English
    Default                                  : No
    Forced                                   : No
    Statistics Tags Issue                    : mkvmerge v15.0.0 ('Duel with the Devil') 64-bit 2017-11-08 03:37:54 / mkvmerge v15.0.0 ('Duel with the Devil') 64-bit 2017-11-08 03:37:54 / UTC 2017-11-06T10:37:11Z
    FromStats_BitRate                        : 40296
    FromStats_Duration                       : 02:43:57.494000000
    FromStats_FrameCount                     : 4892
    FromStats_StreamSize                     : 49552306

    Text #2
    ID                                       : 5
    Format                                   : PGS
    Muxing mode                              : zlib
    Codec ID                                 : S_HDMV/PGS
    Codec ID/Info                            : Picture based subtitle format used on BDs/HD-DVDs
    Language                                 : Spanish
    Default                                  : No
    Forced                                   : No
    Statistics Tags Issue                    : mkvmerge v15.0.0 ('Duel with the Devil') 64-bit 2017-11-08 03:37:54 / mkvmerge v15.0.0 ('Duel with the Devil') 64-bit 2017-11-08 03:37:54 / UTC 2017-11-06T10:37:11Z
    FromStats_BitRate                        : 25068
    FromStats_Duration                       : 02:43:57.370000000
    FromStats_FrameCount                     : 3685
    FromStats_StreamSize                     : 30826176

    Menu
    00:00:00.000                             : :A Politcal Prisoner (Main Titles)
    00:08:11.574                             : :Freedom Town
    00:10:55.238                             : :A Killing For A Green Card
    00:13:40.194                             : :The Good Life
    00:15:43.025                             : :A New Job
    00:20:58.299                             : :Colombians And Chain Saws
    00:29:51.290                             : :Mr. Lopez
    00:33:09.362                             : :Elvira
    00:34:42.539                             : :A Night In Babylon
    00:43:13.174                             : :How To Pick Up Girls
    00:46:46.053                             : :Going In Style
    00:50:45.251                             : :The Prodigal Returns
    00:59:02.706                             : :The Drug Lord
    01:04:15.643                             : :Revenge
    01:08:20.471                             : :Serious Money
    01:12:57.540                             : :A Proposal
    01:17:17.842                             : :Shakedown
    01:23:33.133                             : :Brothery Love
    01:28:48.323                             : :Two Guns For Tony
    01:33:44.244                             : :A Hostile Takeover
    01:43:31.497                             : :Prosperity
    01:47:01.707                             : :Laundry Bills
    01:51:48.410                             : :Philosophy In The Bathtub
    01:57:19.991                             : :The Cost Of Doing Business
    02:02:43.106                             : :Problems And Solutions
    02:07:08.204                             : :Dinner Conversation
    02:13:58.405                             : :Prelude To Murder
    02:16:04.448                             : :No Women And Children
    02:21:46.081                             : :Severing Business Ties
    02:24:22.779                             : :The End Of The Honeymoon
    02:30:37.862                             : :Preparing For War
    02:35:14.889                             : :Gina's Offering
    02:37:33.069                             : :Siege
    02:40:04.303                             : :Montana's Last Stand
    02:43:21.083                             : :End Titles

  • Peso: 17.2 GiB

Sinopsis

Un emigrante cubano frío y sanguinario, Tony Montana, llega de Cuba para instalarse en Miami, donde se propone hacerse con un nombre dentro del crimen organizado de Florida. Junto a su amigo, Manny Rivera, inicia una ascendente carrera delictiva.

Ficha técnica

Video trailer de la película

Enlaces de descarga

Descargar El precio del poder (1983) Full 1080p Latino
Descargar

dpeliculas

Aportes de DPeliculasHDmega la pass es:dpeliculashdmega.org Aportes de CinemaniaHD la pass es:cinemaniahdd.com

Películas relacionadas

  • La autopsia de Jane Doe (2016) Full 1080p Latino

    2016
    La autopsia de Jane Doe (2016) Full 1080p Latino

    0.0 1h 39m 2016

    En una pequeño pueblo de Virginia aparece el cuerpo desnudo y semienterrado de una hermosa joven, misteriosa...

    Director: Sheila McNaught

    Género: FULL 1080p Pesadas

    Actores: Parker Sawyers

  • Guardianes de altamar (2006) Full 1080p Latino

    2006
    Guardianes de altamar (2006) Full 1080p Latino

    0.0 2h 16m 2006

    Después de perder a su equipo en un trágico accidente, Ben Randall, un legendario nadador de rescate,...

    Director: Andrew Davis

    Género: Acción

    Actores: Travis Willingham

  • Lo que de verdad importa (2017) Full 1080p Latino

    2017
    Lo que de verdad importa (2017) Full 1080p Latino

    0.0 1 h 48 min 2017

    Alex vive en Inglaterrra, trabaja arreglando aparatos eléctricos en una empresa que no va bien económicamente,...

    Director: Paco Arango

    Género: Castellano

    Actores: Suresh John

  • Open Water 3 (2017) 1080p Latino

    2017
    Open Water 3 (2017) 1080p Latino

    0.0 1 h 20 min 2017

    Tres amigos viajan a Australia con la intención de grabar un vídeo buceando entre tiburones, que les...

    Director: Gerald Rascionato

    Género: Drama

    Actores: Tara Wraith

Comentarios 9
  • Jay Lee - 13 noviembre, 2017

    Es con el doblaje de Rolando de Castro????

    • Dpelis2 pelis2

      Autor
      - 16 noviembre, 2017

      Es el doblaje donde Cara cortada tiene el acento cubano!

  • moises - 08 noviembre, 2017

    sigue pidiendo clave y usuario

    • dpelis

      Administrador
      - 09 noviembre, 2017

      ahora pruebe

      • moises - 09 noviembre, 2017

        ya se puede,gracias

  • Eduard8810 - 08 noviembre, 2017

    Como descargo la peli xq en el pastedpelis me pide que inicie sesión???

    • dpelis

      Administrador
      - 08 noviembre, 2017

      ya fue reparado

  • moises - 08 noviembre, 2017

    Hola,la descarga publica pide usuario y contraseña,saudos

    • dpelis

      Administrador
      - 08 noviembre, 2017

      reparado