Advertise here

El Otro Guardaespaldas (2017) 1080p Latino

802 vistas
1 estrella2 estrellas3 estrellas4 estrellas5 estrellas (Ninguna valoración todavía)
Cargando…

Información de El Otro Guardaespaldas (2017) 1080p Latino

Datos de la película

  • Calidad: 1080p
  • Audio: Español Latino AC3 5.1 DVD - Ingles AC3 5.1 BLURAY
  • Subtitulos: Español Latino SRT
  • Resolución: 1920X802
  • Formato: MKV
  • Codec: H.264
  • Encoder: Dpelis
  • Mediainfo: Clic para Mostrar Datos Ver
  • Format                                   : Matroska
    Format version                           : Version 4 / Version 2
    File size                                : 3.48 GiB
    Duration                                 : 1 h 58 min
    Overall bit rate                         : 4 206 kb/s
    Movie name                               : dpeliculashdmega.org
    Encoded date                             : UTC 2017-11-11 02:07:11 / UTC 2017-11-11T00:43:48Z
    Writing application                      : mkvmerge v15.0.0 ('Duel with the Devil') 64-bit
    Writing library                          : libebml v1.3.5 + libmatroska v1.4.5 / Lavf57.7.2

    Video
    ID                                       : 1
    Format                                   : AVC
    Format/Info                              : Advanced Video Codec
    Format profile                           : [email protected]
    Format settings                          : CABAC / 5 Ref Frames
    Format settings, CABAC                   : Yes
    Format settings, RefFrames               : 5 frames
    Codec ID                                 : V_MPEG4/ISO/AVC
    Duration                                 : 1 h 58 min
    Bit rate                                 : 3 290 kb/s
    Nominal bit rate                         : 3 500 kb/s
    Width                                    : 1 920 pixels
    Height                                   : 802 pixels
    Display aspect ratio                     : 2.40:1
    Frame rate mode                          : Constant
    Frame rate                               : 23.976 (24000/1001) FPS
    Color space                              : YUV
    Chroma subsampling                       : 4:2:0
    Bit depth                                : 8 bits
    Scan type                                : Progressive
    Bits/(Pixel*Frame)                       : 0.089
    Stream size                              : 2.72 GiB (78%)
    Title                                    : El Otro Guardaespaldas (2017) 1080p Latino
    Writing library                          : x264 core 148 r2708 86b7198
    Encoding settings                        : cabac=1 / ref=5 / deblock=1:0:0 / analyse=0x3:0x113 / me=umh / subme=8 / psy=1 / psy_rd=1.00:0.00 / mixed_ref=1 / me_range=16 / chroma_me=1 / trellis=1 / 8x8dct=1 / cqm=0 / deadzone=21,11 / fast_pskip=1 / chroma_qp_offset=-2 / threads=25 / lookahead_threads=4 / sliced_threads=0 / nr=0 / decimate=1 / interlaced=0 / bluray_compat=0 / constrained_intra=0 / bframes=3 / b_pyramid=2 / b_adapt=2 / b_bias=0 / direct=3 / weightb=1 / open_gop=0 / weightp=2 / keyint=240 / keyint_min=24 / scenecut=40 / intra_refresh=0 / rc_lookahead=50 / rc=abr / mbtree=1 / bitrate=3500 / ratetol=1.0 / qcomp=0.60 / qpmin=0 / qpmax=69 / qpstep=4 / vbv_maxrate=62500 / vbv_bufsize=78125 / nal_hrd=none / filler=0 / ip_ratio=1.40 / aq=1:1.00
    Language                                 : English
    Default                                  : Yes
    Forced                                   : No
    Color range                              : Limited
    Color primaries                          : BT.709
    Transfer characteristics                 : BT.709
    Matrix coefficients                      : BT.709
    Statistics Tags Issue                    : mkvmerge v15.0.0 ('Duel with the Devil') 64-bit 2017-11-11 02:07:11 / mkvmerge v15.0.0 ('Duel with the Devil') 64-bit 2017-11-11 02:07:11 / UTC 2017-11-11T00:43:48Z
    FromStats_BitRate                        : 3373007
    FromStats_Duration                       : 01:58:17.090000000
    FromStats_FrameCount                     : 170160
    FromStats_StreamSize                     : 2992317455

    Audio #1
    ID                                       : 2
    Format                                   : AC-3
    Format/Info                              : Audio Coding 3
    Format settings, Endianness              : Big
    Codec ID                                 : A_AC3
    Duration                                 : 1 h 58 min
    Bit rate mode                            : Constant
    Bit rate                                 : 448 kb/s
    Channel(s)                               : 6 channels
    Channel positions                        : Front: L C R, Side: L R, LFE
    Sampling rate                            : 48.0 kHz
    Frame rate                               : 31.250 FPS (1536 SPF)
    Bit depth                                : 16 bits
    Compression mode                         : Lossy
    Delay relative to video                  : 14 s 695 ms
    Stream size                              : 379 MiB (11%)
    Title                                    : Latino-AC3
    Language                                 : Spanish
    Service kind                             : Complete Main
    Default                                  : Yes
    Forced                                   : No
    Statistics Tags Issue                    : mkvmerge v15.0.0 ('Duel with the Devil') 64-bit 2017-11-11 02:07:11 / mkvmerge v15.0.0 ('Duel with the Devil') 64-bit 2017-11-11 02:07:11 / UTC 2017-11-11T00:43:48Z
    FromStats_BitRate                        : 448000
    FromStats_Duration                       : 01:58:02.144000000
    FromStats_FrameCount                     : 221317
    FromStats_StreamSize                     : 396600064

    Audio #2
    ID                                       : 3
    Format                                   : AC-3
    Format/Info                              : Audio Coding 3
    Format settings, Endianness              : Big
    Codec ID                                 : A_AC3
    Duration                                 : 1 h 58 min
    Bit rate mode                            : Constant
    Bit rate                                 : 384 kb/s
    Channel(s)                               : 6 channels
    Channel positions                        : Front: L C R, Side: L R, LFE
    Sampling rate                            : 48.0 kHz
    Frame rate                               : 31.250 FPS (1536 SPF)
    Bit depth                                : 16 bits
    Compression mode                         : Lossy
    Delay relative to video                  : -5 ms
    Stream size                              : 325 MiB (9%)
    Title                                    : Ingles-AC3
    Language                                 : English
    Service kind                             : Complete Main
    Default                                  : No
    Forced                                   : No
    Statistics Tags Issue                    : mkvmerge v15.0.0 ('Duel with the Devil') 64-bit 2017-11-11 02:07:11 / mkvmerge v15.0.0 ('Duel with the Devil') 64-bit 2017-11-11 02:07:11 / UTC 2017-11-11T00:43:48Z
    FromStats_BitRate                        : 384000
    FromStats_Duration                       : 01:58:17.184000000
    FromStats_FrameCount                     : 221787
    FromStats_StreamSize                     : 340664832

    Text
    ID                                       : 4
    Format                                   : UTF-8
    Codec ID                                 : S_TEXT/UTF8
    Codec ID/Info                            : UTF-8 Plain Text
    Language                                 : Spanish
    Default                                  : No
    Forced                                   : No
    Statistics Tags Issue                    : mkvmerge v15.0.0 ('Duel with the Devil') 64-bit 2017-11-11 02:07:11 / mkvmerge v15.0.0 ('Duel with the Devil') 64-bit 2017-11-11 02:07:11 / UTC 2017-11-11T00:43:48Z
    FromStats_BitRate                        : 64
    FromStats_Duration                       : 01:56:51.930000000
    FromStats_FrameCount                     : 1580
    FromStats_StreamSize                     : 56224

    Menu
    00:00:00.000                             : :00:00:00.000
    00:07:22.943                             : :00:07:22.942
    00:13:53.875                             : :00:13:53.875
    00:20:23.389                             : :00:20:23.305
    00:27:20.139                             : :00:27:20.138
    00:32:53.680                             : :00:32:53.513
    00:38:25.428                             : :00:38:25.428
    00:46:52.977                             : :00:46:52.977
    00:56:39.354                             : :00:56:39.354
    01:00:23.370                             : :01:00:23.370
    01:09:11.439                             : :01:09:11.397
    01:16:34.381                             : :01:16:34.381
    01:21:11.325                             : :01:21:11.241
    01:27:45.135                             : :01:27:45.093
    01:35:06.743                             : :01:35:06.743
    01:40:37.740                             : :01:40:37.740

  • Peso: 3.48 GiB

Sinopsis

El mejor agente de protección del mundo (Reynolds) es asignado para proteger la vida de su mortal enemigo, uno de los más famosos asesinos del mundo (Jackson). El implacable guardaespaldas y el manipulador asesino han estado en el extremo opuesto durante años y ahora tendrán que colaborar en una ruidosa aventura contra un dictador sin piedad (Gary Oldman) sediento de sangre.

Ficha técnica

  • Titulo original: The Hitman's Bodyguard
  • Fecha de lanzamiento: 16-08-2017 (United States of America)
  • Director: Patrick Hughes
  • Género: Acción, Comedia
  • Puntuación: 0.0 0 votos
  • Duración:
    1 h 58 min

Video trailer de la película

Enlaces de descarga

Descargar El Otro Guardaespaldas (2017) 1080p Latino
Descargar

dpeliculas

Aportes de DPeliculasHDmega la pass es:dpeliculashdmega.org Aportes de CinemaniaHD la pass es:cinemaniahdd.com
Guardado en : Acción , Comedia

Películas relacionadas

  • Crash Pad (2017) WEB-DL 1080p Latino

    2017
    Crash Pad (2017) WEB-DL 1080p Latino

    0.0 1 h 33 min 2017

    Un romántico sin esperanza que cree que ha encontrado el amor verdadero con una mujer mayor, solo para...

    Director: Kevin Tent

    Género: Comedia

    Actores: Vladimir Ruzich

  • Toy Story 3 (2010) Full 1080p Latino

    2010
    Toy Story 3 (2010) Full 1080p Latino

    0.0 1 h 43 min 2010

    Sabiendo que su dueño Andy, que ya no es un niño, se prepara para ir a la universidad, el vaquero Woody,...

    Director: Mark Sanford

    Género: Animación

    Actores: Whoopi Goldberg

  • Toy Story (1995) Full 1080p Latino

    1995
    Toy Story (1995) Full 1080p Latino

    0.0 1 h 21 min 1995

    Los juguetes de Andy, un niño de 6 años, temen que haya llegado su hora y que un nuevo regalo de cumpleaños...

    Director: Roman Figun

    Género: Animación

    Actores: Wallace Shawn

Comentarios 0