Advertise here

El Libro de Henry (2017) Full 1080p Latino

460 vistas
1 estrella2 estrellas3 estrellas4 estrellas5 estrellas (1 votos, promedio: 5,00 de 5)
Cargando…

Información de El Libro de Henry (2017) Full 1080p Latino

Datos de la película

  • Calidad: Full 1080p
  • Audio: Español Latino AC3 5.1 DVD - Ingles DTS 5.1 BLURAY
  • Subtitulos: Español Latino PGS - Ingles PGS
  • Resolución: 1920X1080
  • Formato: MKV
  • Codec: H.264
  • Encoder: Dpelis
  • Mediainfo: Clic para Mostrar Datos Ver
  • Format                                   : Matroska
    Format version                           : Version 4 / Version 2
    File size                                : 7.28 GiB
    Duration                                 : 1 h 45 min
    Overall bit rate                         : 9 915 kb/s
    Movie name                               : dpeliculashdmega.org
    Encoded date                             : UTC 2017-11-13 02:36:12 / UTC 2017-11-12T10:39:49Z
    Writing application                      : mkvmerge v15.0.0 ('Duel with the Devil') 64-bit
    Writing library                          : libebml v1.3.5 + libmatroska v1.4.5 / Lavf57.7.2

    Video
    ID                                       : 1
    Format                                   : AVC
    Format/Info                              : Advanced Video Codec
    Format profile                           : [email protected]
    Format settings                          : CABAC / 4 Ref Frames
    Format settings, CABAC                   : Yes
    Format settings, RefFrames               : 4 frames
    Codec ID                                 : V_MPEG4/ISO/AVC
    Duration                                 : 1 h 45 min
    Bit rate                                 : 7 761 kb/s
    Width                                    : 1 920 pixels
    Height                                   : 1 080 pixels
    Display aspect ratio                     : 16:9
    Frame rate mode                          : Constant
    Frame rate                               : 23.976 (24000/1001) FPS
    Color space                              : YUV
    Chroma subsampling                       : 4:2:0
    Bit depth                                : 8 bits
    Scan type                                : Progressive
    Bits/(Pixel*Frame)                       : 0.156
    Stream size                              : 5.70 GiB (78%)
    Title                                    : El Libro de Henry (2017) Full 1080p Latino
    Writing library                          : x264 core 148 r2708 86b7198
    Encoding settings                        : cabac=1 / ref=4 / deblock=1:0:0 / analyse=0x3:0x133 / me=esa / subme=10 / psy=1 / psy_rd=1.00:0.00 / mixed_ref=1 / me_range=24 / chroma_me=1 / trellis=2 / 8x8dct=1 / cqm=0 / deadzone=21,11 / fast_pskip=1 / chroma_qp_offset=-2 / threads=34 / lookahead_threads=5 / sliced_threads=0 / nr=0 / decimate=1 / interlaced=0 / bluray_compat=0 / constrained_intra=0 / bframes=8 / b_pyramid=2 / b_adapt=2 / b_bias=0 / direct=3 / weightb=1 / open_gop=0 / weightp=2 / keyint=240 / keyint_min=24 / scenecut=40 / intra_refresh=0 / rc_lookahead=60 / rc=crf / mbtree=1 / crf=20.0 / qcomp=0.60 / qpmin=0 / qpmax=69 / qpstep=4 / vbv_maxrate=62500 / vbv_bufsize=78125 / crf_max=0.0 / nal_hrd=none / filler=0 / ip_ratio=1.40 / aq=1:1.00
    Language                                 : English
    Default                                  : Yes
    Forced                                   : No
    Color range                              : Limited
    Color primaries                          : BT.709
    Transfer characteristics                 : BT.709
    Matrix coefficients                      : BT.709
    Statistics Tags Issue                    : mkvmerge v15.0.0 ('Duel with the Devil') 64-bit 2017-11-13 02:36:12 / mkvmerge v15.0.0 ('Duel with the Devil') 64-bit 2017-11-13 02:36:12 / UTC 2017-11-12T10:39:49Z
    FromStats_BitRate                        : 7936300
    FromStats_Duration                       : 01:45:08.928000000
    FromStats_FrameCount                     : 151263
    FromStats_StreamSize                     : 6258693458

    Audio #1
    ID                                       : 2
    Format                                   : AC-3
    Format/Info                              : Audio Coding 3
    Format settings, Endianness              : Big
    Codec ID                                 : A_AC3
    Duration                                 : 1 h 45 min
    Bit rate mode                            : Constant
    Bit rate                                 : 448 kb/s
    Channel(s)                               : 6 channels
    Channel positions                        : Front: L C R, Side: L R, LFE
    Sampling rate                            : 44.1 kHz
    Frame rate                               : 28.711 FPS (1536 SPF)
    Bit depth                                : 16 bits
    Compression mode                         : Lossy
    Delay relative to video                  : 9 ms
    Stream size                              : 337 MiB (5%)
    Title                                    : Latino-AC3
    Language                                 : Spanish
    Service kind                             : Complete Main
    Default                                  : Yes
    Forced                                   : No
    Statistics Tags Issue                    : mkvmerge v15.0.0 ('Duel with the Devil') 64-bit 2017-11-13 02:36:12 / mkvmerge v15.0.0 ('Duel with the Devil') 64-bit 2017-11-13 02:36:12 / UTC 2017-11-12T10:39:49Z
    FromStats_BitRate                        : 448000
    FromStats_Duration                       : 01:45:07.631000000
    FromStats_FrameCount                     : 181098
    FromStats_StreamSize                     : 353227338

    Audio #2
    ID                                       : 3
    Format                                   : DTS
    Format/Info                              : Digital Theater Systems
    Mode                                     : 16
    Format settings, Endianness              : Big
    Codec ID                                 : A_DTS
    Duration                                 : 1 h 45 min
    Bit rate mode                            : Constant
    Bit rate                                 : 1 509 kb/s
    Channel(s)                               : 6 channels
    Channel positions                        : Front: L C R, Side: L R, LFE
    Sampling rate                            : 48.0 kHz
    Frame rate                               : 93.750 FPS (512 SPF)
    Bit depth                                : 24 bits
    Compression mode                         : Lossy
    Stream size                              : 1.11 GiB (15%)
    Title                                    : Ingles-DTS
    Language                                 : English
    Default                                  : No
    Forced                                   : No
    Statistics Tags Issue                    : mkvmerge v15.0.0 ('Duel with the Devil') 64-bit 2017-11-13 02:36:12 / mkvmerge v15.0.0 ('Duel with the Devil') 64-bit 2017-11-13 02:36:12 / UTC 2017-11-12T10:39:49Z
    FromStats_BitRate                        : 1509000
    FromStats_Duration                       : 01:45:08.928000000
    FromStats_FrameCount                     : 591462
    FromStats_StreamSize                     : 1190021544

    Text #1
    ID                                       : 4
    Format                                   : UTF-8
    Codec ID                                 : S_TEXT/UTF8
    Codec ID/Info                            : UTF-8 Plain Text
    Title                                    : SRT-Forzados
    Language                                 : Spanish
    Default                                  : Yes
    Forced                                   : No
    Statistics Tags Issue                    : mkvmerge v15.0.0 ('Duel with the Devil') 64-bit 2017-11-13 02:36:12 / mkvmerge v15.0.0 ('Duel with the Devil') 64-bit 2017-11-13 02:36:12 / UTC 2017-11-12T10:39:49Z
    FromStats_BitRate                        : 1
    FromStats_Duration                       : 01:32:08.213000000
    FromStats_FrameCount                     : 34
    FromStats_StreamSize                     : 1105

    Text #2
    ID                                       : 5
    Format                                   : PGS
    Muxing mode                              : zlib
    Codec ID                                 : S_HDMV/PGS
    Codec ID/Info                            : Picture based subtitle format used on BDs/HD-DVDs
    Title                                    : PGS
    Language                                 : English
    Default                                  : No
    Forced                                   : No
    Statistics Tags Issue                    : mkvmerge v15.0.0 ('Duel with the Devil') 64-bit 2017-11-13 02:36:12 / mkvmerge v15.0.0 ('Duel with the Devil') 64-bit 2017-11-13 02:36:12 / UTC 2017-11-12T10:39:49Z
    FromStats_BitRate                        : 34989
    FromStats_Duration                       : 01:38:02.960000000
    FromStats_FrameCount                     : 2765
    FromStats_StreamSize                     : 25730211

    Text #3
    ID                                       : 6
    Format                                   : PGS
    Muxing mode                              : zlib
    Codec ID                                 : S_HDMV/PGS
    Codec ID/Info                            : Picture based subtitle format used on BDs/HD-DVDs
    Title                                    : PGS
    Language                                 : Spanish
    Default                                  : No
    Forced                                   : No
    Statistics Tags Issue                    : mkvmerge v15.0.0 ('Duel with the Devil') 64-bit 2017-11-13 02:36:12 / mkvmerge v15.0.0 ('Duel with the Devil') 64-bit 2017-11-13 02:36:12 / UTC 2017-11-12T10:39:49Z
    FromStats_BitRate                        : 27852
    FromStats_Duration                       : 01:41:53.440000000
    FromStats_FrameCount                     : 2359
    FromStats_StreamSize                     : 21284216

    Menu
    00:00:00.000                             : :00:00:00.000
    00:02:54.591                             : :00:02:54.591
    00:10:45.270                             : :00:10:45.270
    00:16:41.042                             : :00:16:41.042
    00:21:56.232                             : :00:21:56.232
    00:27:54.673                             : :00:27:54.673
    00:32:08.385                             : :00:32:08.385
    00:35:41.181                             : :00:35:41.181
    00:42:17.035                             : :00:42:17.034
    00:47:41.442                             : :00:47:41.442
    00:51:44.727                             : :00:51:44.727
    00:57:15.849                             : :00:57:15.849
    01:00:54.025                             : :01:00:54.025
    01:08:16.217                             : :01:08:16.217
    01:12:32.765                             : :01:12:32.765
    01:18:37.046                             : :01:18:37.046
    01:25:25.871                             : :01:25:25.746
    01:30:34.471                             : :01:30:34.471
    01:35:16.294                             : :01:35:16.294
    01:41:23.202                             : :01:41:23.202

  • Peso: 7.28 GiB

Sinopsis

Susan es una madre soltera con dos hijos, el mayor de 11 años, Henry, es superdotado y sobre el que recae toda la responsabilidad, pagar las facturas, cuidar de su hermano pequeño, Peter, hasta incluso de su madre.

La vida de esta familia cambia cuando su vecina, amiga de Henry, es acosada por su padrastro. El extraordinario niño se dará cuenta rápidamente de lo que ocurre en casa de su vecina, e intenta convencer a su madre para poner fin a esta situación. Susan y Henry harán todo lo posible para alejar a la pequeña de su agresor, pero no será una tarea sencilla, ya que el macabro vecino esconde algo que desconocen.

Ficha técnica

Video trailer de la película

Enlaces de descarga

Descargar El Libro de Henry (2017) Full 1080p Latino
Descargar

dpeliculas

Aportes de DPeliculasHDmega la pass es:dpeliculashdmega.org Aportes de CinemaniaHD la pass es:cinemaniahdd.com

Películas relacionadas

  • Lo que de verdad importa (2017) Full 1080p Latino

    2017
    Lo que de verdad importa (2017) Full 1080p Latino

    0.0 1 h 48 min 2017

    Alex vive en Inglaterrra, trabaja arreglando aparatos eléctricos en una empresa que no va bien económicamente,...

    Director: Paco Arango

    Género: Castellano

    Actores: Suresh John

  • Open Water 3 (2017) 1080p Latino

    2017
    Open Water 3 (2017) 1080p Latino

    0.0 1 h 20 min 2017

    Tres amigos viajan a Australia con la intención de grabar un vídeo buceando entre tiburones, que les...

    Director: Gerald Rascionato

    Género: Drama

    Actores: Tara Wraith

  • El vagón de la muerte (2008) UNRATED Full 1080p Latino

    2008
    El vagón de la muerte (2008) UNRATED Full 1080p Latino

    0.0 1 h 42 min 2008

    La dueña de una exitosa galería de arte le propone al fotógrafo Leon Kauffman llevar a cabo un trabajo...

    Director: Ryûhei Kitamura

    Género: Crimen

    Actores: Vinnie Jones

  • Marvel’s The Punisher (2017) WEB-DL 1080p Latino

    2017
    Marvel’s The Punisher (2017) WEB-DL 1080p Latino

    5.0 51 min 2017

    Frank Castle, conocido por las calles de Nueva York como 'el Castigador', busca venganza contra los responsables...

    Director: Steve Lightfoot

    Género: Crimen

    Actores: Paul Schulze

Comentarios 2
  • scarlettmaureent - 16 noviembre, 2017

    excelente muchas gracias

  • leonidas2016 - 14 noviembre, 2017

    Muy bueno ,gracias