El imperio de las sombras (2016) 1080p Latino

992 vistas
1 estrella2 estrellas3 estrellas4 estrellas5 estrellas (Ninguna valoración todavía)
Cargando…

Información de El imperio de las sombras (2016) 1080p Latino

Datos de la película

  • Calidad: 1080p
  • Audio: Se especifica abajo de la Sinopsis
  • Subtitulos: Español Latino SRT - Ingles SRT
  • Resolución: 1920x808p
  • Formato: MKV
  • Codec: H.264
  • Encoder: Dpelis
  • Mediainfo: Ver Ver
  • The Age of Shadows (2016) 1080p Latino.mkv
    Format                      : Matroska
    Format version              : Version 4 / Version 2
    File size                   : 3.97 GiB
    Duration                    : 2 h 20 min
    Overall bit rate            : 4 035 kb/s
    Movie name                  : DPeliculasHDMega.ORG
    Encoded date                : UTC 2017-09-16 01:08:56 / UTC 2017-09-16T00:02:44Z
    Writing application         : mkvmerge v10.0.0 ('To Drown In You') 64bit
    Writing library             : libebml v1.3.4 + libmatroska v1.4.5 / Lavf57.7.2

    Video
    ID                          : 1
    Format                      : AVC
    Format/Info                 : Advanced Video Codec
    Format profile              : [email protected]
    Format settings, CABAC      : Yes
    Format settings, RefFrames  : 4 frames
    Codec ID                    : V_MPEG4/ISO/AVC
    Duration                    : 2 h 20 min
    Bit rate                    : 3 500 kb/s
    Width                       : 1 920 pixels
    Height                      : 808 pixels
    Display aspect ratio        : 2.40:1
    Frame rate mode             : Constant
    Frame rate                  : 23.976 (24000/1001) FPS
    Color space                 : YUV
    Chroma subsampling          : 4:2:0
    Bit depth                   : 8 bits
    Scan type                   : Progressive
    Bits/(Pixel*Frame)          : 0.094
    Stream size                 : 3.32 GiB (84%)
    Writing library             : x264 core 148 r2708 86b7198
    Encoding settings           : cabac=1 / ref=3 / deblock=1:0:0 / analyse=0x3:0x113 / me=hex / subme=7 / psy=1 / psy_rd=1.00:0.00 / mixed_ref=1 / me_range=16 / chroma_me=1 / trellis=1 / 8x8dct=1 / cqm=0 / deadzone=21,11 / fast_pskip=1 / chroma_qp_offset=-2 / threads=25 / lookahead_threads=4 / sliced_threads=0 / nr=0 / decimate=1 / interlaced=0 / bluray_compat=0 / constrained_intra=0 / bframes=3 / b_pyramid=2 / b_adapt=1 / b_bias=0 / direct=1 / weightb=1 / open_gop=0 / weightp=2 / keyint=240 / keyint_min=24 / scenecut=40 / intra_refresh=0 / rc_lookahead=40 / rc=abr / mbtree=1 / bitrate=3500 / ratetol=1.0 / qcomp=0.60 / qpmin=0 / qpmax=69 / qpstep=4 / vbv_maxrate=62500 / vbv_bufsize=78125 / nal_hrd=none / filler=0 / ip_ratio=1.40 / aq=1:1.00
    Default                     : Yes
    Forced                      : No
    Color range                 : Limited
    Color primaries             : BT.709
    Transfer characteristics    : BT.709
    Matrix coefficients         : BT.709
    Statistics Tags Issue       : mkvmerge v10.0.0 ('To Drown In You') 64bit 2017-09-16 01:08:56 / mkvmerge v10.0.0 ('To Drown In You') 64bit 2017-09-16 01:08:56 / UTC 2017-09-16T00:02:44Z
    FromStats_BitRate           : 3458667
    FromStats_Duration          : 02:20:44.019000000
    FromStats_FrameCount        : 202454
    FromStats_StreamSize        : 3650631736

    Audio #1
    ID                          : 2
    Format                      : AC-3
    Format/Info                 : Audio Coding 3
    Format settings, Endianness : Big
    Codec ID                    : A_AC3
    Duration                    : 2 h 20 min
    Bit rate mode               : Constant
    Bit rate                    : 192 kb/s
    Channel(s)                  : 6 channels
    Channel positions           : Front: L C R, Side: L R, LFE
    Sampling rate               : 48.0 kHz
    Frame rate                  : 31.250 FPS (1536 SPF)
    Bit depth                   : 16 bits
    Compression mode            : Lossy
    Delay relative to video     : 5 ms
    Stream size                 : 193 MiB (5%)
    Language                    : Spanish
    Service kind                : Complete Main
    Default                     : Yes
    Forced                      : No
    Statistics Tags Issue       : mkvmerge v10.0.0 ('To Drown In You') 64bit 2017-09-16 01:08:56 / mkvmerge v10.0.0 ('To Drown In You') 64bit 2017-09-16 01:08:56 / UTC 2017-09-16T00:02:44Z
    FromStats_BitRate           : 192000
    FromStats_Duration          : 02:20:12.480000000
    FromStats_FrameCount        : 262890
    FromStats_StreamSize        : 201899520

    Audio #2
    ID                          : 3
    Format                      : AC-3
    Format/Info                 : Audio Coding 3
    Format settings, Endianness : Big
    Codec ID                    : A_AC3
    Duration                    : 2 h 20 min
    Bit rate mode               : Constant
    Bit rate                    : 384 kb/s
    Channel(s)                  : 6 channels
    Channel positions           : Front: L C R, Side: L R, LFE
    Sampling rate               : 48.0 kHz
    Frame rate                  : 31.250 FPS (1536 SPF)
    Bit depth                   : 16 bits
    Compression mode            : Lossy
    Delay relative to video     : -5 ms
    Stream size                 : 387 MiB (10%)
    Title                       : Surround
    Language                    : Korean
    Service kind                : Complete Main
    Default                     : No
    Forced                      : No
    Statistics Tags Issue       : mkvmerge v10.0.0 ('To Drown In You') 64bit 2017-09-16 01:08:56 / mkvmerge v10.0.0 ('To Drown In You') 64bit 2017-09-16 01:08:56 / UTC 2017-09-16T00:02:44Z
    FromStats_BitRate           : 384000
    FromStats_Duration          : 02:20:12.992000000
    FromStats_FrameCount        : 262906
    FromStats_StreamSize        : 403823616

    Text
    ID                          : 4
    Format                      : UTF-8
    Codec ID                    : S_TEXT/UTF8
    Codec ID/Info               : UTF-8 Plain Text
    Default                     : Yes
    Forced                      : No
    Statistics Tags Issue       : mkvmerge v10.0.0 ('To Drown In You') 64bit 2017-09-16 01:08:56 / mkvmerge v10.0.0 ('To Drown In You') 64bit 2017-09-16 01:08:56 / UTC 2017-09-16T00:02:44Z
    FromStats_BitRate           : 35
    FromStats_Duration          : 02:15:46.482000000
    FromStats_FrameCount        : 1107
    FromStats_StreamSize        : 36026

    Menu
    00:00:00.000                : :00:00:00.000
    00:12:23.159                : :00:12:23.159
    00:19:22.953                : :00:19:22.912
    00:25:13.637                : :00:25:13.595
    00:35:21.536                : :00:35:21.494
    00:49:13.117                : :00:49:13.117
    00:59:53.090                : :00:59:53.090
    01:08:42.368                : :01:08:42.368
    01:18:15.774                : :01:18:15.733
    01:32:29.669                : :01:32:29.627
    01:39:12.405                : :01:39:12.363
    01:48:47.312                : :01:48:47.271
    02:00:13.498                : :02:00:13.498
    02:12:56.927                : :02:12:56.886

  • Peso: 3.97 GB

Sinopsis

Finales de los años 20, durante la ocupación japonesa de Corea. Un grupo de la resistencia intenta traer explosivos desde Shanghái para destruir la base nipona en Seúl, mientras que los japoneses intentan detenerlos. Un talentoso policía japonés nacido coreano, que había pertenecido al movimiento independiente, se ve en el dilema de elegir entre su deber y el apoyo a una causa mayor.

Español Latino AC3 2.0 DVD –  Koreano AC3 5.1 BLURAY

Ficha técnica

Imágenes, Capturas de la película

Video trailer de la película

Enlaces de descarga

Descargar El imperio de las sombras (2016) 1080p Latino
Descargar

dpeliculas

Aportes de DPeliculasHDmega la pass es:dpeliculashdmega.org Aportes de CinemaniaHD la pass es:cinemaniahdd.com
Guardado en : Acción , Drama , Historia , Suspense

PelícuDelas relacionadas

Comentarios 2
  • piero - 16 septiembre, 2017

    hola les queria mencionar que los enlaces de openload hasta el momento no aparecen ……saludos

    • dpelis

      Administrador
      - 16 septiembre, 2017

      agregados