El honor perdido de Christopher Jefferies (2014) Webdl 720p Latino

362 vistas
1 estrella2 estrellas3 estrellas4 estrellas5 estrellas (1 votos, promedio: 4,00 de 5)
Cargando…

Información de El honor perdido de Christopher Jefferies (2014) Webdl 720p Latino

Datos de la película

  • Calidad: WEBDL
  • Audio: Se especifica abajo de la Sinopsis
  • Subtitulos: Español Latino SRT - Ingles SRT
  • Resolución: 1280x720p
  • Formato: MKV
  • Codec: H.264
  • Encoder: Dpelis
  • Mediainfo: Ver Ver
  • El honor perdido de Christopher Jefferies WEBDl 720p Latino.mkv
    Format                      : Matroska
    Format version              : Version 4 / Version 2
    File size                   : 1.96 GiB
    Duration                    : 1 h 54 min
    Overall bit rate            : 2 454 kb/s
    Movie name                  : DPeliculasHDMega.ORG
    Encoded date                : UTC 2017-07-15 16:07:27 / UTC 2017-07-15T13:50:22Z
    Writing application         : mkvmerge v10.0.0 ('To Drown In You') 64bit
    Writing library             : libebml v1.3.4 + libmatroska v1.4.5 / Lavf57.7.2

    Video
    ID                          : 1
    Format                      : AVC
    Format/Info                 : Advanced Video Codec
    Format profile              : [email protected]
    Format settings, CABAC      : Yes
    Format settings, ReFrames   : 4 frames
    Codec ID                    : V_MPEG4/ISO/AVC
    Duration                    : 1 h 54 min
    Bit rate                    : 2 000 kb/s
    Width                       : 1 280 pixels
    Height                      : 720 pixels
    Display aspect ratio        : 16:9
    Frame rate mode             : Constant
    Frame rate                  : 23.976 (24000/1001) FPS
    Color space                 : YUV
    Chroma subsampling          : 4:2:0
    Bit depth                   : 8 bits
    Scan type                   : Progressive
    Bits/(Pixel*Frame)          : 0.091
    Stream size                 : 1.57 GiB (80%)
    Writing library             : x264 core 148 r2708 86b7198
    Encoding settings           : cabac=1 / ref=3 / deblock=1:0:0 / analyse=0x3:0x113 / me=hex / subme=7 / psy=1 / psy_rd=1.00:0.00 / mixed_ref=1 / me_range=16 / chroma_me=1 / trellis=1 / 8x8dct=1 / cqm=0 / deadzone=21,11 / fast_pskip=1 / chroma_qp_offset=-2 / threads=22 / lookahead_threads=3 / sliced_threads=0 / nr=0 / decimate=1 / interlaced=0 / bluray_compat=0 / constrained_intra=0 / bframes=3 / b_pyramid=2 / b_adapt=1 / b_bias=0 / direct=1 / weightb=1 / open_gop=0 / weightp=2 / keyint=240 / keyint_min=24 / scenecut=40 / intra_refresh=0 / rc_lookahead=40 / rc=abr / mbtree=1 / bitrate=2000 / ratetol=1.0 / qcomp=0.60 / qpmin=0 / qpmax=69 / qpstep=4 / vbv_maxrate=62500 / vbv_bufsize=78125 / nal_hrd=none / filler=0 / ip_ratio=1.40 / aq=1:1.00
    Default                     : Yes
    Forced                      : No
    Color range                 : Limited
    Color primaries             : BT.709
    Transfer characteristics    : BT.709
    Matrix coefficients         : BT.709
    Statistics Tags Issue       : mkvmerge v10.0.0 ('To Drown In You') 64bit 2017-07-15 16:07:27 / mkvmerge v10.0.0 ('To Drown In You') 64bit 2017-07-15 16:07:27 / UTC 2017-07-15T13:50:22Z
    FromStats_BitRate           : 2003844
    FromStats_Duration          : 01:54:28.862000000
    FromStats_FrameCount        : 164688
    FromStats_StreamSize        : 1720516791

    Audio #1
    ID                          : 2
    Format                      : AC-3
    Format/Info                 : Audio Coding 3
    Format settings, Endianness : Big
    Codec ID                    : A_AC3
    Duration                    : 1 h 54 min
    Bit rate mode               : Constant
    Bit rate                    : 224 kb/s
    Channel(s)                  : 2 channels
    Channel positions           : Front: L R
    Sampling rate               : 48.0 kHz
    Frame rate                  : 31.250 FPS (1536 spf)
    Bit depth                   : 16 bits
    Compression mode            : Lossy
    Delay relative to video     : -5 ms
    Stream size                 : 183 MiB (9%)
    Language                    : Spanish
    Service kind                : Complete Main
    Default                     : Yes
    Forced                      : No
    Statistics Tags Issue       : mkvmerge v10.0.0 ('To Drown In You') 64bit 2017-07-15 16:07:27 / mkvmerge v10.0.0 ('To Drown In You') 64bit 2017-07-15 16:07:27 / UTC 2017-07-15T13:50:22Z
    FromStats_BitRate           : 224000
    FromStats_Duration          : 01:54:29.024000000
    FromStats_FrameCount        : 214657
    FromStats_StreamSize        : 192332672

    Audio #2
    ID                          : 3
    Format                      : AC-3
    Format/Info                 : Audio Coding 3
    Format settings, Endianness : Big
    Codec ID                    : A_AC3
    Duration                    : 1 h 54 min
    Bit rate mode               : Constant
    Bit rate                    : 224 kb/s
    Channel(s)                  : 2 channels
    Channel positions           : Front: L R
    Sampling rate               : 48.0 kHz
    Frame rate                  : 31.250 FPS (1536 spf)
    Bit depth                   : 16 bits
    Compression mode            : Lossy
    Delay relative to video     : -5 ms
    Stream size                 : 183 MiB (9%)
    Language                    : English
    Service kind                : Complete Main
    Default                     : No
    Forced                      : No
    Statistics Tags Issue       : mkvmerge v10.0.0 ('To Drown In You') 64bit 2017-07-15 16:07:27 / mkvmerge v10.0.0 ('To Drown In You') 64bit 2017-07-15 16:07:27 / UTC 2017-07-15T13:50:22Z
    FromStats_BitRate           : 224000
    FromStats_Duration          : 01:54:29.024000000
    FromStats_FrameCount        : 214657
    FromStats_StreamSize        : 192332672

    Text #1
    ID                          : 4
    Format                      : UTF-8
    Codec ID                    : S_TEXT/UTF8
    Codec ID/Info               : UTF-8 Plain Text
    Language                    : Spanish
    Default                     : No
    Forced                      : No
    Statistics Tags Issue       : mkvmerge v10.0.0 ('To Drown In You') 64bit 2017-07-15 16:07:27 / mkvmerge v10.0.0 ('To Drown In You') 64bit 2017-07-15 16:07:27 / UTC 2017-07-15T13:50:22Z
    FromStats_BitRate           : 68
    FromStats_Duration          : 01:52:10.969000000
    FromStats_FrameCount        : 1431
    FromStats_StreamSize        : 58044

    Text #2
    ID                          : 5
    Format                      : UTF-8
    Codec ID                    : S_TEXT/UTF8
    Codec ID/Info               : UTF-8 Plain Text
    Title                       : FORZADOS
    Language                    : Spanish
    Default                     : Yes
    Forced                      : No
    Statistics Tags Issue       : mkvmerge v10.0.0 ('To Drown In You') 64bit 2017-07-15 16:07:27 / mkvmerge v10.0.0 ('To Drown In You') 64bit 2017-07-15 16:07:27 / UTC 2017-07-15T13:50:22Z
    FromStats_BitRate           : 0
    FromStats_Duration          : 01:24:00.209000000
    FromStats_FrameCount        : 10
    FromStats_StreamSize        : 228

    Text #3
    ID                          : 6
    Format                      : UTF-8
    Codec ID                    : S_TEXT/UTF8
    Codec ID/Info               : UTF-8 Plain Text
    Language                    : English
    Default                     : No
    Forced                      : No
    Statistics Tags Issue       : mkvmerge v10.0.0 ('To Drown In You') 64bit 2017-07-15 16:07:27 / mkvmerge v10.0.0 ('To Drown In You') 64bit 2017-07-15 16:07:27 / UTC 2017-07-15T13:50:22Z
    FromStats_BitRate           : 69
    FromStats_Duration          : 01:53:24.689000000
    FromStats_FrameCount        : 1724
    FromStats_StreamSize        : 59080

  • Peso: 1.96 GB

Sinopsis

Este drama cuenta la historia de la vida real del maestro jubilado Christopher Jefferies, quien fue inicialmente interrogado por la policía como sospechoso del asesinato de Jo Yeates, quien le alquiló un piso. Fue vilipendiado por la prensa, en parte por su apariencia excéntrica y pelo largo , incluso después de haber sido puesto en libertad bajo fianza por la policía. Fue sólo cuando el verdadero sospechoso, un vecino de Jo Yeates, fue arrestado y más tarde condenado por el asesinato que la atención destructiva de los medios en Jefferies cedió. Posteriormente demandó a varios periódicos por difamación y recibió una disculpa oficial de la policía…

 

EspanOl Latino AC3 2.0 – Ingles AC3 2.0

Ficha técnica

  • Titulo original: The Lost Honour of Christopher Jefferies
  • Fecha de lanzamiento: 10-12-2014 (United Kingdom)
  • Director: Roger Michell
  • Género: Drama
  • Puntuación: 4.0 1 votos
  • Duración:
    1h 54m

Imágenes, Capturas de la película

Video trailer de la película

Enlaces de descarga

Descargar El honor perdido de Christopher Jefferies (2014) Webdl 720p Latino
Descargar

dpeliculas

Aportes de DPeliculasHDmega la pass es:dpeliculashdmega.org Aportes de CinemaniaHD la pass es:cinemaniahdd.com
Guardado en : Drama

PelícuDelas relacionadas

  • Born in China (2016) 1080p Latino

    2017
    Born in China (2016) 1080p Latino

    0.0 1h 19m 2017

    Documental de la filial de Walt Disney Disneynature que recoge la vida salvaje y la belleza natural de...

    Director: Lu Chuan

    Género: Documental

    Actores: Zhou Xun

  • Gold la gran estafa (2016) 1080p Latino

    2016
    Gold la gran estafa (2016) 1080p Latino

    0.0 2h 1m 2016

    Descarga Gold hd latino, también conocida La gran estafa 1080p latino Kenny Wells es un fracasado hombre...

    Director: Stephen Gaghan

    Género: Aventura

    Actores: Yothin Mapobphun

  • Juego de Tronos (2016) Temporada 6 Full Latino

    2011/03/17
    Juego de Tronos (2016) Temporada 6 Full Latino

    0.0 60 Min. 2011/03/17

    Descargar gratis Juego de Tronos (2016) Temporada 6 Full Latino Sinopsis capitulo 1: Jon Nieve está...

    Director: David Benioff

    Género: Drama

    Actores: Sophie Turner

  • Juegos de Tronos (2015) Temporada 5 Full Latino

    2011/03/17
    Juegos de Tronos (2015) Temporada 5 Full Latino

    5.0 60 Min. 2011/03/17

    Descargar gratis Juegos de Tronos (2015) Temporada 5 Full Latino  Sinopsis captitulo 1: La reina Cersei...

    Director: David Benioff

    Género: Drama

    Actores: Sophie Turner

  • The Ring 2 (2005) WEB-DL 1080p Latino

    2005
    The Ring 2 (2005) WEB-DL 1080p Latino

    0.0 1h 51m 2005

    Descargar gratis The Ring 2 (2005) WEB-DL 1080p Latino. Para escapar de una vida que era una auténtica...

    Director: Trudy Ramirez

    Género: Drama

    Actores: Sissy Spacek

Comentarios 0