El gato con botas (2017) Webdl 1080p Latino

2.033 vistas
1 estrella2 estrellas3 estrellas4 estrellas5 estrellas (1 votos, promedio: 1,00 de 5)
Cargando…

Información de El gato con botas (2017) Webdl 1080p Latino

Datos de la película

  • Calidad: WEBDL
  • Audio: Se especifica abajo de la Sinopsis
  • Subtitulos: Español Latino SRT - Ingles SRT
  • Resolución: 1920x1080
  • Formato: MKV
  • Codec: H.264
  • Encoder: Dpelis
  • Mediainfo: Ver Ver
  • Puss in Book Trapped in an Epic Tale 2017 webdl 1080p Latino.mkv
    Format                      : Matroska
    Format version              : Version 4 / Version 2
    File size                   : 707 MiB
    Duration                    : 23 min 52 s
    Overall bit rate            : 4 142 kb/s
    Movie name                  : DPeliculasHDMega.ORG
    Encoded date                : UTC 2017-06-22 23:54:45 / UTC 2017-06-22T22:21:17Z
    Writing application         : mkvmerge v10.0.0 ('To Drown In You') 64bit
    Writing library             : libebml v1.3.4 + libmatroska v1.4.5 / Lavf57.7.2

    Video
    ID                          : 1
    Format                      : AVC
    Format/Info                 : Advanced Video Codec
    Format profile              : [email protected]
    Format settings, CABAC      : Yes
    Format settings, ReFrames   : 4 frames
    Codec ID                    : V_MPEG4/ISO/AVC
    Duration                    : 23 min 52 s
    Bit rate                    : 3 500 kb/s
    Width                       : 1 920 pixels
    Height                      : 1 080 pixels
    Display aspect ratio        : 16:9
    Frame rate mode             : Constant
    Frame rate                  : 23.976 (24000/1001) FPS
    Color space                 : YUV
    Chroma subsampling          : 4:2:0
    Bit depth                   : 8 bits
    Scan type                   : Progressive
    Bits/(Pixel*Frame)          : 0.070
    Stream size                 : 584 MiB (83%)
    Writing library             : x264 core 148 r2708 86b7198
    Encoding settings           : cabac=1 / ref=3 / deblock=1:0:0 / analyse=0x3:0x113 / me=hex / subme=7 / psy=1 / psy_rd=1.00:0.00 / mixed_ref=1 / me_range=16 / chroma_me=1 / trellis=1 / 8x8dct=1 / cqm=0 / deadzone=21,11 / fast_pskip=1 / chroma_qp_offset=-2 / threads=34 / lookahead_threads=5 / sliced_threads=0 / nr=0 / decimate=1 / interlaced=0 / bluray_compat=0 / constrained_intra=0 / bframes=3 / b_pyramid=2 / b_adapt=1 / b_bias=0 / direct=1 / weightb=1 / open_gop=0 / weightp=2 / keyint=240 / keyint_min=24 / scenecut=40 / intra_refresh=0 / rc_lookahead=40 / rc=2pass / mbtree=1 / bitrate=3500 / ratetol=1.0 / qcomp=0.60 / qpmin=0 / qpmax=69 / qpstep=4 / cplxblur=20.0 / qblur=0.5 / vbv_maxrate=62500 / vbv_bufsize=78125 / nal_hrd=none / filler=0 / ip_ratio=1.40 / aq=1:1.00
    Default                     : Yes
    Forced                      : No
    Color range                 : Limited
    Color primaries             : BT.709
    Transfer characteristics    : BT.709
    Matrix coefficients         : BT.709
    Statistics Tags Issue       : mkvmerge v10.0.0 ('To Drown In You') 64bit 2017-06-22 23:54:45 / mkvmerge v10.0.0 ('To Drown In You') 64bit 2017-06-22 23:54:45 / UTC 2017-06-22T22:21:17Z
    FromStats_BitRate           : 3500646
    FromStats_Duration          : 00:23:51.889000000
    FromStats_FrameCount        : 34331
    FromStats_StreamSize        : 626567166

    Audio #1
    ID                          : 2
    Format                      : AC-3
    Format/Info                 : Audio Coding 3
    Format settings, Endianness : Big
    Codec ID                    : A_AC3
    Duration                    : 23 min 52 s
    Bit rate mode               : Constant
    Bit rate                    : 256 kb/s
    Channel(s)                  : 6 channels
    Channel positions           : Front: L C R, Side: L R, LFE
    Sampling rate               : 48.0 kHz
    Frame rate                  : 31.250 FPS (1536 spf)
    Bit depth                   : 16 bits
    Compression mode            : Lossy
    Stream size                 : 43.7 MiB (6%)
    Language                    : Spanish
    Service kind                : Complete Main
    Default                     : No
    Forced                      : No
    Statistics Tags Issue       : mkvmerge v10.0.0 ('To Drown In You') 64bit 2017-06-22 23:54:45 / mkvmerge v10.0.0 ('To Drown In You') 64bit 2017-06-22 23:54:45 / UTC 2017-06-22T22:21:17Z
    FromStats_BitRate           : 256000
    FromStats_Duration          : 00:23:52.288000000
    FromStats_FrameCount        : 44759
    FromStats_StreamSize        : 45833216

    Audio #2
    ID                          : 3
    Format                      : AC-3
    Format/Info                 : Audio Coding 3
    Format settings, Endianness : Big
    Codec ID                    : A_AC3
    Duration                    : 23 min 52 s
    Bit rate mode               : Constant
    Bit rate                    : 384 kb/s
    Channel(s)                  : 6 channels
    Channel positions           : Front: L C R, Side: L R, LFE
    Sampling rate               : 48.0 kHz
    Frame rate                  : 31.250 FPS (1536 spf)
    Bit depth                   : 16 bits
    Compression mode            : Lossy
    Stream size                 : 65.6 MiB (9%)
    Title                       : Surround
    Language                    : English
    Service kind                : Complete Main
    Default                     : Yes
    Forced                      : No
    Statistics Tags Issue       : mkvmerge v10.0.0 ('To Drown In You') 64bit 2017-06-22 23:54:45 / mkvmerge v10.0.0 ('To Drown In You') 64bit 2017-06-22 23:54:45 / UTC 2017-06-22T22:21:17Z
    FromStats_BitRate           : 384000
    FromStats_Duration          : 00:23:52.352000000
    FromStats_FrameCount        : 44761
    FromStats_StreamSize        : 68752896

    Text #1
    ID                          : 4
    Format                      : UTF-8
    Codec ID                    : S_TEXT/UTF8
    Codec ID/Info               : UTF-8 Plain Text
    Language                    : Spanish
    Default                     : Yes
    Forced                      : No
    Statistics Tags Issue       : mkvmerge v10.0.0 ('To Drown In You') 64bit 2017-06-22 23:54:45 / mkvmerge v10.0.0 ('To Drown In You') 64bit 2017-06-22 23:54:45 / UTC 2017-06-22T22:21:17Z
    FromStats_BitRate           : 64
    FromStats_Duration          : 00:22:28.224000000
    FromStats_FrameCount        : 314
    FromStats_StreamSize        : 10916

    Text #2
    ID                          : 5
    Format                      : UTF-8
    Codec ID                    : S_TEXT/UTF8
    Codec ID/Info               : UTF-8 Plain Text
    Language                    : English
    Default                     : No
    Forced                      : No
    Statistics Tags Issue       : mkvmerge v10.0.0 ('To Drown In You') 64bit 2017-06-22 23:54:45 / mkvmerge v10.0.0 ('To Drown In You') 64bit 2017-06-22 23:54:45 / UTC 2017-06-22T22:21:17Z
    FromStats_BitRate           : 81
    FromStats_Duration          : 00:22:38.357000000
    FromStats_FrameCount        : 440
    FromStats_StreamSize        : 13831

  • Peso: 707 MB

Sinopsis

Descargar El gato con botas Atrapado en un cuento Epico hd latino  MiniPelicula de Netflix Atrapado en un libro de cuentos mágico, el gato con botas tiene que luchar, bailar y seducir en todo tipo de aventuras si quiere salir de allí.

Español Latino AC3 2.0 – Ingles AC3 5.1

Ficha técnica

  • Titulo original: Puss in Book: Trapped in an Epic Tale
  • Fecha de lanzamiento: 20-06-2017 (United States of America)
  • Género: Animación
  • Puntuación: 1.0 1 votos
  • Duración:
    0h 23m

Imágenes, Capturas de la película

Video trailer de la película

Enlaces de descarga

Descargar
Descargar El gato con botas (2017) Webdl 1080p Latino

dpeliculas

Aportes de DPeliculasHDmega la pass es:dpeliculashdmega.org Aportes de CinemaniaHD la pass es:cinemaniahdd.com
Guardado en : Animación

PelícuDelas relacionadas

  • En este rincón del mundo (2016) 1080p Latino

    2016
    En este rincón del mundo (2016) 1080p Latino

    0.0 2h 10m 2016

    La historia narra la vida de una familia residente en la ciudad de Kure (Hiroshima) durante la II Guerra...

    Director: Sunao Katabuchi

    Género: Animación

    Actores: Yoshimasa Hosoya

  • Batman vs. Two-Face (2017) Full 1080p Latino

    2017
    Batman vs. Two-Face (2017) Full 1080p Latino

    0.0 1 h 12 min 2017

    En la Penitenciaría de Gotham, en presencia de Batman, Robin y el Fiscal de Distrito Harvey Dent, el...

    Director: Rick Morales

    Género: Acción

    Actores: William Shatner

  • Emoji: La película (2017) Full 1080p Latino

    2017
    Emoji: La película (2017) Full 1080p Latino

    5.0 1 h 26 min 2017

    Dentro de tu teléfono móvil existe todo un mundo secreto nunca antes visto. Oculta tras la aplicación...

    Director: Anthony Leondis

    Género: Animación

    Actores: William Townsend

  • Emoji: La película (2017) 1080p Latino

    2017
    Emoji: La película (2017) 1080p Latino

    1.0 1 h 26 min 2017

    Los protagonistas habitarán la misteriosa tierra de Textopolis, donde todos los emojis favoritos de...

    Director: Anthony Leondis

    Género: Animación

    Actores: William Townsend

  • Batman vs. Two-Face (2017) 1080p Latino

    2017
    Batman vs. Two-Face (2017) 1080p Latino

    0.0 1h 12m 2017

    El ex fiscal de distrito de la ciudad de Gotham, Harvey Dent,un lado de su rostro marcado por el ácido,...

    Director: Rick Morales

    Género: Acción

    Actores: William Shatner

Comentarios 0