El canal (2014) Webdl 1080p Latino

686 vistas
1 estrella2 estrellas3 estrellas4 estrellas5 estrellas (Ninguna valoración todavía)
Cargando…

Información de El canal (2014) Webdl 1080p Latino

Datos de la película

  • Calidad: WEBDL
  • Audio: Se especifica abajo de la Sinopsis
  • Subtitulos: Español Latino SRT - Ingles SRT
  • Resolución: 1920x800p
  • Formato: MKV
  • Codec: H.264
  • Encoder: Dpelis
  • Mediainfo: Ver Ver
  • the canal 2014 webdl latino.mkv
    Format                      : Matroska
    Format version              : Version 4 / Version 2
    File size                   : 2.73 GiB
    Duration                    : 1 h 33 min
    Overall bit rate            : 4 190 kb/s
    Encoded date                : UTC 2017-07-03 19:00:28 / UTC 2017-07-03T16:03:07Z
    Writing application         : mkvmerge v10.0.0 ('To Drown In You') 64bit
    Writing library             : libebml v1.3.4 + libmatroska v1.4.5 / Lavf57.7.2

    Video
    ID                          : 1
    Format                      : AVC
    Format/Info                 : Advanced Video Codec
    Format profile              : [email protected]
    Format settings, CABAC      : Yes
    Format settings, ReFrames   : 4 frames
    Codec ID                    : V_MPEG4/ISO/AVC
    Duration                    : 1 h 33 min
    Bit rate                    : 3 500 kb/s
    Width                       : 1 906 pixels
    Height                      : 800 pixels
    Display aspect ratio        : 2.40:1
    Frame rate mode             : Constant
    Frame rate                  : 24.000 FPS
    Color space                 : YUV
    Chroma subsampling          : 4:2:0
    Bit depth                   : 8 bits
    Scan type                   : Progressive
    Bits/(Pixel*Frame)          : 0.096
    Stream size                 : 2.18 GiB (80%)
    Writing library             : x264 core 148 r2708 86b7198
    Encoding settings           : cabac=1 / ref=3 / deblock=1:0:0 / analyse=0x3:0x113 / me=hex / subme=7 / psy=1 / psy_rd=1.00:0.00 / mixed_ref=1 / me_range=16 / chroma_me=1 / trellis=1 / 8x8dct=1 / cqm=0 / deadzone=21,11 / fast_pskip=1 / chroma_qp_offset=-2 / threads=12 / lookahead_threads=2 / sliced_threads=0 / nr=0 / decimate=1 / interlaced=0 / bluray_compat=0 / constrained_intra=0 / bframes=3 / b_pyramid=2 / b_adapt=1 / b_bias=0 / direct=1 / weightb=1 / open_gop=0 / weightp=2 / keyint=240 / keyint_min=24 / scenecut=40 / intra_refresh=0 / rc_lookahead=40 / rc=abr / mbtree=1 / bitrate=3500 / ratetol=1.0 / qcomp=0.60 / qpmin=0 / qpmax=69 / qpstep=4 / vbv_maxrate=62500 / vbv_bufsize=78125 / nal_hrd=none / filler=0 / ip_ratio=1.40 / aq=1:1.00
    Default                     : Yes
    Forced                      : No
    Color range                 : Limited
    Color primaries             : BT.709
    Transfer characteristics    : BT.709
    Matrix coefficients         : BT.709
    Statistics Tags Issue       : mkvmerge v10.0.0 ('To Drown In You') 64bit 2017-07-03 19:00:28 / mkvmerge v10.0.0 ('To Drown In You') 64bit 2017-07-03 19:00:28 / UTC 2017-07-03T16:03:07Z
    FromStats_BitRate           : 3420110
    FromStats_Duration          : 01:33:16.042000000
    FromStats_FrameCount        : 134305
    FromStats_StreamSize        : 2392384957

    Audio #1
    ID                          : 2
    Format                      : AC-3
    Format/Info                 : Audio Coding 3
    Format settings, Endianness : Big
    Codec ID                    : A_AC3
    Duration                    : 1 h 33 min
    Bit rate mode               : Constant
    Bit rate                    : 384 kb/s
    Channel(s)                  : 6 channels
    Channel positions           : Front: L C R, Side: L R, LFE
    Sampling rate               : 48.0 kHz
    Frame rate                  : 31.250 FPS (1536 spf)
    Bit depth                   : 16 bits
    Compression mode            : Lossy
    Delay relative to video     : -5 ms
    Stream size                 : 256 MiB (9%)
    Title                       : Surround
    Language                    : Spanish
    Service kind                : Complete Main
    Default                     : Yes
    Forced                      : No
    Statistics Tags Issue       : mkvmerge v10.0.0 ('To Drown In You') 64bit 2017-07-03 19:00:28 / mkvmerge v10.0.0 ('To Drown In You') 64bit 2017-07-03 19:00:28 / UTC 2017-07-03T16:03:07Z
    FromStats_BitRate           : 384000
    FromStats_Duration          : 01:33:16.064000000
    FromStats_FrameCount        : 174877
    FromStats_StreamSize        : 268611072

    Audio #2
    ID                          : 3
    Format                      : AC-3
    Format/Info                 : Audio Coding 3
    Format settings, Endianness : Big
    Codec ID                    : A_AC3
    Duration                    : 1 h 33 min
    Bit rate mode               : Constant
    Bit rate                    : 384 kb/s
    Channel(s)                  : 6 channels
    Channel positions           : Front: L C R, Side: L R, LFE
    Sampling rate               : 48.0 kHz
    Frame rate                  : 31.250 FPS (1536 spf)
    Bit depth                   : 16 bits
    Compression mode            : Lossy
    Delay relative to video     : -5 ms
    Stream size                 : 256 MiB (9%)
    Title                       : Surround
    Language                    : English
    Service kind                : Complete Main
    Default                     : No
    Forced                      : No
    Statistics Tags Issue       : mkvmerge v10.0.0 ('To Drown In You') 64bit 2017-07-03 19:00:28 / mkvmerge v10.0.0 ('To Drown In You') 64bit 2017-07-03 19:00:28 / UTC 2017-07-03T16:03:07Z
    FromStats_BitRate           : 384000
    FromStats_Duration          : 01:33:16.064000000
    FromStats_FrameCount        : 174877
    FromStats_StreamSize        : 268611072

    Text #1
    ID                          : 4
    Format                      : UTF-8
    Codec ID                    : S_TEXT/UTF8
    Codec ID/Info               : UTF-8 Plain Text
    Language                    : Spanish
    Default                     : Yes
    Forced                      : No
    Statistics Tags Issue       : mkvmerge v10.0.0 ('To Drown In You') 64bit 2017-07-03 19:00:28 / mkvmerge v10.0.0 ('To Drown In You') 64bit 2017-07-03 19:00:28 / UTC 2017-07-03T16:03:07Z
    FromStats_BitRate           : 37
    FromStats_Duration          : 01:28:10.608000000
    FromStats_FrameCount        : 766
    FromStats_StreamSize        : 24474

    Text #2
    ID                          : 5
    Format                      : UTF-8
    Codec ID                    : S_TEXT/UTF8
    Codec ID/Info               : UTF-8 Plain Text
    Language                    : Multiple languages
    Default                     : No
    Forced                      : No
    Statistics Tags Issue       : mkvmerge v10.0.0 ('To Drown In You') 64bit 2017-07-03 19:00:28 / mkvmerge v10.0.0 ('To Drown In You') 64bit 2017-07-03 19:00:28 / UTC 2017-07-03T16:03:07Z
    FromStats_BitRate           : 43
    FromStats_Duration          : 01:28:34.914000000
    FromStats_FrameCount        : 974
    FromStats_StreamSize        : 28659

    Menu
    00:00:00.000                : :Chapter 1
    00:05:00.000                : :Chapter 2
    00:10:00.000                : :Chapter 3
    00:10:06.000                : :Chapter 4
    00:15:00.000                : :Chapter 5
    00:20:00.000                : :Chapter 6
    00:24:38.000                : :Chapter 7
    00:25:00.000                : :Chapter 8
    00:30:00.000                : :Chapter 9
    00:35:00.000                : :Chapter 10
    00:36:23.000                : :Chapter 11
    00:40:00.000                : :Chapter 12
    00:45:00.000                : :Chapter 13
    00:45:56.000                : :Chapter 14
    00:50:00.000                : :Chapter 15
    00:55:00.000                : :Chapter 16
    00:57:40.000                : :Chapter 17
    01:00:00.000                : :Chapter 18
    01:05:00.000                : :Chapter 19
    01:09:17.000                : :Chapter 20
    01:13:14.000                : :Chapter 21
    01:18:21.000                : :Chapter 22
    01:23:30.000                : :Chapter 23
    01:28:30.000                : :Chapter 24

  • Peso: 2.73 GB

Sinopsis

Mientras clasifica material de archivo rodado a principios del siglo XX, David descubre que su casa fue el escenario de un terrible crimen. Un hecho luctuoso que amenaza con proyectar una sombra fantasmagórica sobre la vida del protagonista. Usando las imágenes de archivo como algo espeluznante, The Canal se convierte en una gran muestra de terror psicológico.

 

Español Latino AC3 5.1 – Ingles AC3 5.1

Ficha técnica

Imágenes, Capturas de la película

Video trailer de la película

Enlaces de descarga

Descargar El canal (2014) Webdl 1080p Latino
Descargar

dpeliculas

Aportes de DPeliculasHDmega la pass es:dpeliculashdmega.org Aportes de CinemaniaHD la pass es:cinemaniahdd.com
Guardado en : Misterio , Suspense , Terror

PelícuDelas relacionadas

  • Equipo paranormal (2013) 1080p Latino

    2013
    Equipo paranormal (2013) 1080p Latino

    0.0 1h 47m 2013

    Descargar gratis Equipo paranormal (2013) 1080p Latino. En est pelicula de comedia de terror, cuando...

    Director: Scott Rutherford

    Género: Comedia

    Actores: Tony Cavalero

  • Collide (2016) 1080p Latino

    2016
    Collide (2016) 1080p Latino

    0.0 1h 39m 2016

    Descargar Persecucion al limite hd latino. Tambien conocida como Collide 1080p Cuando uno de los atracos...

    Director: Eran Creevy

    Género: Acción

    Actores: Nicholas Hoult

  • Gold la gran estafa (2016) 1080p Latino

    2016
    Gold la gran estafa (2016) 1080p Latino

    0.0 2h 1m 2016

    Descarga Gold hd latino, también conocida La gran estafa 1080p latino Kenny Wells es un fracasado hombre...

    Director: Stephen Gaghan

    Género: Aventura

    Actores: Yothin Mapobphun

Comentarios 2
  • luis - 17 Julio, 2017

    esta pelicula ya lo abian subido en cinemaniahdd pero solo en ingles con subitituulo para los q ya la descargamos no hay la posibilidad q suban solo el audio latino

    • dpelis

      Administrador
      - 17 Julio, 2017

      no estimado. debe bajar de nuevo