El bebe jefazo (2017) 720p Latino

1.687 vistas
1 estrella2 estrellas3 estrellas4 estrellas5 estrellas (1 votos, promedio: 3,00 de 5)
Cargando…

Información de El bebe jefazo (2017) 720p Latino

Datos de la película

  • Calidad: 720p
  • Audio: Español Latino AC3 5.1 BLURAY - Ingles AC3 5.1 BLURAY
  • Subtitulos: Español Latino SRT - Ingles SRT
  • Resolución: 1280X544p
  • Formato: MKV
  • Codec: H.264
  • Encoder: Dpelis
  • Mediainfo: Ver Ver
  • The.boss.baby.2017.720p.Latino.mkv
    Format                      : Matroska
    Format version              : Version 4 / Version 2
    File size                   : 1.68 GiB
    Duration                    : 1 h 37 min
    Overall bit rate            : 2 468 kb/s
    Movie name                  : DPelicuasHDMega.ORG
    Encoded date                : UTC 2017-07-10 20:01:13 / UTC 2017-07-09T22:19:52Z
    Writing application         : mkvmerge v10.0.0 ('To Drown In You') 64bit
    Writing library             : libebml v1.3.4 + libmatroska v1.4.5 / Lavf57.7.2

    Video
    ID                          : 1
    Format                      : AVC
    Format/Info                 : Advanced Video Codec
    Format profile              : [email protected]
    Format settings, CABAC      : Yes
    Format settings, ReFrames   : 4 frames
    Codec ID                    : V_MPEG4/ISO/AVC
    Duration                    : 1 h 37 min
    Bit rate                    : 1 700 kb/s
    Width                       : 1 280 pixels
    Height                      : 544 pixels
    Display aspect ratio        : 2.35:1
    Frame rate mode             : Constant
    Frame rate                  : 23.976 (24000/1001) FPS
    Color space                 : YUV
    Chroma subsampling          : 4:2:0
    Bit depth                   : 8 bits
    Scan type                   : Progressive
    Bits/(Pixel*Frame)          : 0.102
    Stream size                 : 1.12 GiB (67%)
    Writing library             : x264 core 148 r2708 86b7198
    Encoding settings           : cabac=1 / ref=3 / deblock=1:0:0 / analyse=0x3:0x113 / me=hex / subme=7 / psy=1 / psy_rd=1.00:0.00 / mixed_ref=1 / me_range=16 / chroma_me=1 / trellis=1 / 8x8dct=1 / cqm=0 / deadzone=21,11 / fast_pskip=1 / chroma_qp_offset=-2 / threads=12 / lookahead_threads=2 / sliced_threads=0 / nr=0 / decimate=1 / interlaced=0 / bluray_compat=0 / constrained_intra=0 / bframes=3 / b_pyramid=2 / b_adapt=1 / b_bias=0 / direct=1 / weightb=1 / open_gop=0 / weightp=2 / keyint=240 / keyint_min=24 / scenecut=40 / intra_refresh=0 / rc_lookahead=40 / rc=abr / mbtree=1 / bitrate=1700 / ratetol=1.0 / qcomp=0.60 / qpmin=0 / qpmax=69 / qpstep=4 / vbv_maxrate=62500 / vbv_bufsize=78125 / nal_hrd=none / filler=0 / ip_ratio=1.40 / aq=1:1.00
    Default                     : Yes
    Forced                      : No
    Color range                 : Limited
    Color primaries             : BT.709
    Transfer characteristics    : BT.709
    Matrix coefficients         : BT.709
    Statistics Tags Issue       : mkvmerge v10.0.0 ('To Drown In You') 64bit 2017-07-10 20:01:13 / mkvmerge v10.0.0 ('To Drown In You') 64bit 2017-07-10 20:01:13 / UTC 2017-07-09T22:19:52Z
    FromStats_BitRate           : 1697404
    FromStats_Duration          : 01:37:30.804000000
    FromStats_FrameCount        : 140279
    FromStats_StreamSize        : 1241397663

    Audio #1
    ID                          : 2
    Format                      : AC-3
    Format/Info                 : Audio Coding 3
    Format settings, Endianness : Big
    Codec ID                    : A_AC3
    Duration                    : 1 h 37 min
    Bit rate mode               : Constant
    Bit rate                    : 384 kb/s
    Channel(s)                  : 6 channels
    Channel positions           : Front: L C R, Side: L R, LFE
    Sampling rate               : 48.0 kHz
    Frame rate                  : 31.250 FPS (1536 spf)
    Bit depth                   : 16 bits
    Compression mode            : Lossy
    Delay relative to video     : -5 ms
    Stream size                 : 268 MiB (16%)
    Language                    : Spanish
    Service kind                : Complete Main
    Default                     : Yes
    Forced                      : No
    Statistics Tags Issue       : mkvmerge v10.0.0 ('To Drown In You') 64bit 2017-07-10 20:01:13 / mkvmerge v10.0.0 ('To Drown In You') 64bit 2017-07-10 20:01:13 / UTC 2017-07-09T22:19:52Z
    FromStats_BitRate           : 384000
    FromStats_Duration          : 01:37:30.880000000
    FromStats_FrameCount        : 182840
    FromStats_StreamSize        : 280842240

    Audio #2
    ID                          : 3
    Format                      : AC-3
    Format/Info                 : Audio Coding 3
    Format settings, Endianness : Big
    Codec ID                    : A_AC3
    Duration                    : 1 h 37 min
    Bit rate mode               : Constant
    Bit rate                    : 384 kb/s
    Channel(s)                  : 6 channels
    Channel positions           : Front: L C R, Side: L R, LFE
    Sampling rate               : 48.0 kHz
    Frame rate                  : 31.250 FPS (1536 spf)
    Bit depth                   : 16 bits
    Compression mode            : Lossy
    Delay relative to video     : -5 ms
    Stream size                 : 268 MiB (16%)
    Title                       : Surround
    Language                    : English
    Service kind                : Complete Main
    Default                     : No
    Forced                      : No
    Statistics Tags Issue       : mkvmerge v10.0.0 ('To Drown In You') 64bit 2017-07-10 20:01:13 / mkvmerge v10.0.0 ('To Drown In You') 64bit 2017-07-10 20:01:13 / UTC 2017-07-09T22:19:52Z
    FromStats_BitRate           : 384000
    FromStats_Duration          : 01:37:30.816000000
    FromStats_FrameCount        : 182838
    FromStats_StreamSize        : 280839168

    Text #1
    ID                          : 4
    Format                      : UTF-8
    Codec ID                    : S_TEXT/UTF8
    Codec ID/Info               : UTF-8 Plain Text
    Language                    : Spanish
    Default                     : No
    Forced                      : No
    Statistics Tags Issue       : mkvmerge v10.0.0 ('To Drown In You') 64bit 2017-07-10 20:01:13 / mkvmerge v10.0.0 ('To Drown In You') 64bit 2017-07-10 20:01:13 / UTC 2017-07-09T22:19:52Z
    FromStats_BitRate           : 59
    FromStats_Duration          : 01:36:29.311000000
    FromStats_FrameCount        : 1570
    FromStats_StreamSize        : 42726

    Text #2
    ID                          : 5
    Format                      : UTF-8
    Codec ID                    : S_TEXT/UTF8
    Codec ID/Info               : UTF-8 Plain Text
    Language                    : English
    Default                     : No
    Forced                      : No
    Statistics Tags Issue       : mkvmerge v10.0.0 ('To Drown In You') 64bit 2017-07-10 20:01:13 / mkvmerge v10.0.0 ('To Drown In You') 64bit 2017-07-10 20:01:13 / UTC 2017-07-09T22:19:52Z
    FromStats_BitRate           : 63
    FromStats_Duration          : 00:00:17.100000000
    FromStats_FrameCount        : 9
    FromStats_StreamSize        : 136

    Text #3
    ID                          : 6
    Format                      : UTF-8
    Codec ID                    : S_TEXT/UTF8
    Codec ID/Info               : UTF-8 Plain Text
    Language                    : Spanish
    Default                     : Yes
    Forced                      : No
    Statistics Tags Issue       : mkvmerge v10.0.0 ('To Drown In You') 64bit 2017-07-10 20:01:13 / mkvmerge v10.0.0 ('To Drown In You') 64bit 2017-07-10 20:01:13 / UTC 2017-07-09T22:19:52Z
    FromStats_BitRate           : 28
    FromStats_Duration          : 00:00:20.100000000
    FromStats_FrameCount        : 1
    FromStats_StreamSize        : 71

    Menu
    00:00:00.000                : :00:00:00.000
    00:03:45.934                : :00:03:45.892
    00:08:58.288                : :00:08:58.288
    00:11:45.914                : :00:11:45.914
    00:14:59.565                : :00:14:59.565
    00:19:38.219                : :00:19:38.219
    00:22:52.788                : :00:22:52.788
    00:28:27.247                : :00:28:27.247
    00:30:26.116                : :00:30:26.116
    00:33:45.482                : :00:33:45.482
    00:36:57.257                : :00:36:57.257
    00:39:18.356                : :00:39:18.356
    00:42:35.344                : :00:42:35.344
    00:46:20.653                : :00:46:20.611
    00:51:37.720                : :00:51:37.720
    00:53:25.285                : :00:53:25.285
    00:56:28.719                : :00:56:28.719
    00:59:35.405                : :00:59:35.405
    01:04:03.173                : :01:04:03.173
    01:08:15.758                : :01:08:15.758
    01:11:29.911                : :01:11:29.911
    01:16:25.247                : :01:16:25.247
    01:23:10.110                : :01:23:10.110
    01:27:37.002                : :01:27:36.960

  • Peso: 1.68 GB

Sinopsis

Descargar gratis El bebé jefazo (2017) 720p Latino Mega. Boss Baby es una comedia familiar que se centra en un bebé muy maduro para su edad y Tim, su hermano de siete años que siente celos de él. Tim busca volver a ganarse el cariño de sus padres, pero cuando descubre una trama secreta del director general de Puppy Co. con la que pretender destruir el amr en el mundo y que su hermano pequeño es en realidad un ejecutivo encubierto, ambos tienen que unirse como una verdadera familia para restablecer el orden del mundo y demostrar que el amor es una fuerza indestructible.

Ficha técnica

  • Titulo original: The Boss Baby
  • Fecha de lanzamiento: 23-03-2017 (United States of America)
  • Director: Tom McGrath
  • Género: Animación, Comedia, Familia
  • Puntuación: 3.0 1 votos
  • Duración:
    1h 37m

Imágenes, Capturas de la película

Video trailer de la película

Enlaces de descarga

Descargar El bebe jefazo (2017) 720p Latino
Descargar

dpeliculas

Aportes de DPeliculasHDmega la pass es:dpeliculashdmega.org Aportes de CinemaniaHD la pass es:cinemaniahdd.com
Guardado en : Animación , Comedia , Familia

PelícuDelas relacionadas

Comentarios 5
  • AngelesNegros - 04 Julio, 2017

    ¡Gracias! En un principio me aparecía “Error 404 Not Found” al ingresar o darle click en “Descargar” del Paste Público. Pero luego de unos 5 minutos se solucionó el problema.

  • frank - 03 Julio, 2017

    No da la contraseña. no puedo extraer la película.
    ¿Cuál es el pw?

  • LOGAN - 28 Junio, 2017

    buenas noches mi estimado .. subirás en 4k esta y la de fast and furious 8 ???? gracias bro x tu tiempo..

    • deps dpelis

      Autor
      - 28 Junio, 2017

      por el momento no, ya que todavia no liberaron el bluray 4K