El bar (2017) Full 1080p Castellano

987 vistas
1 estrella2 estrellas3 estrellas4 estrellas5 estrellas (1 votos, promedio: 5,00 de 5)
Cargando…

Información de El bar (2017) Full 1080p Castellano

Datos de la película

  • Calidad: Full 1080p
  • Audio: Español DTS 5.1 BLURAY
  • Subtitulos: No
  • Resolución: 1920x1080p
  • Formato: MKV
  • Codec: H.264
  • Encoder: Dpeis
  • Mediainfo: Ver Ver
  • El.bar.2017.Full.Castellano.mkv
    Format                      : Matroska
    Format version              : Version 4 / Version 2
    File size                   : 4.23 GiB
    Duration                    : 1 h 42 min
    Overall bit rate            : 5 942 kb/s
    Movie name                  : DPeliculasHDMega.ORG
    Encoded date                : UTC 2017-07-30 22:05:09 / UTC 2017-07-30T05:31:10Z
    Writing application         : mkvmerge v10.0.0 ('To Drown In You') 64bit
    Writing library             : libebml v1.3.4 + libmatroska v1.4.5 / Lavf57.7.2

    Video
    ID                          : 1
    Format                      : AVC
    Format/Info                 : Advanced Video Codec
    Format profile              : [email protected]
    Format settings, CABAC      : Yes
    Format settings, ReFrames   : 4 frames
    Codec ID                    : V_MPEG4/ISO/AVC
    Duration                    : 1 h 42 min
    Bit rate                    : 4 314 kb/s
    Width                       : 1 920 pixels
    Height                      : 1 080 pixels
    Display aspect ratio        : 16:9
    Frame rate mode             : Constant
    Frame rate                  : 24.000 FPS
    Color space                 : YUV
    Chroma subsampling          : 4:2:0
    Bit depth                   : 8 bits
    Scan type                   : Progressive
    Bits/(Pixel*Frame)          : 0.087
    Stream size                 : 3.07 GiB (73%)
    Writing library             : x264 core 148 r2708 86b7198
    Encoding settings           : cabac=1 / ref=4 / deblock=1:0:0 / analyse=0x3:0x133 / me=esa / subme=10 / psy=1 / psy_rd=1.00:0.00 / mixed_ref=1 / me_range=24 / chroma_me=1 / trellis=2 / 8x8dct=1 / cqm=0 / deadzone=21,11 / fast_pskip=1 / chroma_qp_offset=-2 / threads=34 / lookahead_threads=5 / sliced_threads=0 / nr=0 / decimate=1 / interlaced=0 / bluray_compat=0 / constrained_intra=0 / bframes=8 / b_pyramid=2 / b_adapt=2 / b_bias=0 / direct=3 / weightb=1 / open_gop=0 / weightp=2 / keyint=240 / keyint_min=24 / scenecut=40 / intra_refresh=0 / rc_lookahead=60 / rc=crf / mbtree=1 / crf=20.0 / qcomp=0.60 / qpmin=0 / qpmax=69 / qpstep=4 / vbv_maxrate=62500 / vbv_bufsize=78125 / crf_max=0.0 / nal_hrd=none / filler=0 / ip_ratio=1.40 / aq=1:1.00
    Default                     : Yes
    Forced                      : No
    Color range                 : Limited
    Color primaries             : BT.709
    Transfer characteristics    : BT.709
    Matrix coefficients         : BT.709
    Statistics Tags Issue       : mkvmerge v10.0.0 ('To Drown In You') 64bit 2017-07-30 22:05:09 / mkvmerge v10.0.0 ('To Drown In You') 64bit 2017-07-30 22:05:09 / UTC 2017-07-30T05:31:10Z
    FromStats_BitRate           : 4416719
    FromStats_Duration          : 01:42:00.417000000
    FromStats_FrameCount        : 146890
    FromStats_StreamSize        : 3379020893

    Audio
    ID                          : 2
    Format                      : DTS
    Format/Info                 : Digital Theater Systems
    Mode                        : 16
    Format settings, Endianness : Big
    Codec ID                    : A_DTS
    Duration                    : 1 h 42 min
    Bit rate mode               : Constant
    Bit rate                    : 1 509 kb/s
    Channel(s)                  : 6 channels
    Channel positions           : Front: L C R, Side: L R, LFE
    Sampling rate               : 48.0 kHz
    Frame rate                  : 93.750 FPS (512 spf)
    Bit depth                   : 24 bits
    Compression mode            : Lossy
    Stream size                 : 1.08 GiB (25%)
    Title                       : Surround
    Language                    : Spanish
    Default                     : Yes
    Forced                      : No
    Statistics Tags Issue       : mkvmerge v10.0.0 ('To Drown In You') 64bit 2017-07-30 22:05:09 / mkvmerge v10.0.0 ('To Drown In You') 64bit 2017-07-30 22:05:09 / UTC 2017-07-30T05:31:10Z
    FromStats_BitRate           : 1509000
    FromStats_Duration          : 01:42:00.416000000
    FromStats_FrameCount        : 573789
    FromStats_StreamSize        : 1154463468

    Text
    ID                          : 3
    Format                      : PGS
    Muxing mode                 : zlib
    Codec ID                    : S_HDMV/PGS
    Codec ID/Info               : Picture based subtitle format used on BDs/HD-DVDs
    Language                    : English
    Default                     : No
    Forced                      : No
    Statistics Tags Issue       : mkvmerge v10.0.0 ('To Drown In You') 64bit 2017-07-30 22:05:09 / mkvmerge v10.0.0 ('To Drown In You') 64bit 2017-07-30 22:05:09 / UTC 2017-07-30T05:31:10Z
    FromStats_BitRate           : 13575
    FromStats_Duration          : 01:41:13.208000000
    FromStats_FrameCount        : 2834
    FromStats_StreamSize        : 10305503

    Menu
    00:00:00.000                : :Chapter 1
    00:07:25.625                : :Chapter 2
    00:17:14.917                : :Chapter 3
    00:26:04.917                : :Chapter 4
    00:33:26.292                : :Chapter 5
    00:41:39.500                : :Chapter 6
    00:51:34.375                : :Chapter 7
    00:59:14.667                : :Chapter 8
    01:08:20.625                : :Chapter 9
    01:16:23.667                : :Chapter 10
    01:24:45.083                : :Chapter 11
    01:33:44.625                : :Chapter 12

  • Peso: 4.23 GB

Sinopsis

Descargar El Bar una pelicula Española en  hd  9:00 horas. Un grupo de personas absolutamente heterogéneo desayuna en un bar en el centro de Madrid. Uno de ellos tiene prisa; al salir por la puerta recibe un disparo en la cabeza. Nadie se atreve a socorrerle. Están atrapados.

Ficha técnica

Imágenes, Capturas de la película

Video trailer de la película

Enlaces de descarga

Descargar El bar (2017) Full 1080p Castellano
Descargar

dpeliculas

Aportes de DPeliculasHDmega la pass es:dpeliculashdmega.org Aportes de CinemaniaHD la pass es:cinemaniahdd.com

PelícuDelas relacionadas

  • Equipo paranormal (2013) 1080p Latino

    2013
    Equipo paranormal (2013) 1080p Latino

    0.0 1h 47m 2013

    Descargar gratis Equipo paranormal (2013) 1080p Latino. En est pelicula de comedia de terror, cuando...

    Director: Scott Rutherford

    Género: Comedia

    Actores: Tony Cavalero

  • Dragon Ball Super (2015) Full 1080p Latino

    2015
    Dragon Ball Super (2015) Full 1080p Latino

    5.0 0h 24m 2015

    Si eres un seguidor de la serie Dragon ball super latino, entonces ahora puedes disfrutar de esta maravillosa...

    Director: Akira Toriyama

    Género: Anime

    Actores: Naoki Tatsuta

  • Collide (2016) 1080p Latino

    2016
    Collide (2016) 1080p Latino

    0.0 1h 39m 2016

    Descargar Persecucion al limite hd latino. Tambien conocida como Collide 1080p Cuando uno de los atracos...

    Director: Eran Creevy

    Género: Acción

    Actores: Nicholas Hoult

Comentarios 0