El abuelo que no pagó la cuenta y se largo (2016) 720p Latino

340 vistas
1 estrella2 estrellas3 estrellas4 estrellas5 estrellas (Ninguna valoración todavía)
Cargando…

Información de El abuelo que no pagó la cuenta y se largo (2016) 720p Latino

Datos de la película

  • Calidad: 720p
  • Audio: Español Latino AC3 5.1 DVD - Ingles AC3 5.1 BLURAY
  • Subtitulos: Español Latino SRT - Ingles SRT
  • Resolución: 1280x536p
  • Formato: MKV
  • Codec: H.264
  • Encoder: Frank19
  • Mediainfo: Ver Ver
  • The.101.year.old.man.720p.2017.LATINO.mkv
    Format                      : Matroska
    Format version              : Version 4 / Version 2
    File size                   : 1.85 GiB
    Duration                    : 1 h 48 min
    Overall bit rate            : 2 454 kb/s
    Encoded date                : UTC 2017-06-15 03:55:02 / UTC 2017-06-15T00:22:18Z
    Writing application         : mkvmerge v10.0.0 ('To Drown In You') 64bit
    Writing library             : libebml v1.3.4 + libmatroska v1.4.5 / Lavf57.7.2

    Video
    ID                          : 1
    Format                      : AVC
    Format/Info                 : Advanced Video Codec
    Format profile              : [email protected]
    Format settings, CABAC      : Yes
    Format settings, ReFrames   : 4 frames
    Codec ID                    : V_MPEG4/ISO/AVC
    Duration                    : 1 h 48 min
    Bit rate                    : 1 700 kb/s
    Width                       : 1 280 pixels
    Height                      : 536 pixels
    Display aspect ratio        : 2.40:1
    Frame rate mode             : Constant
    Frame rate                  : 24.000 FPS
    Color space                 : YUV
    Chroma subsampling          : 4:2:0
    Bit depth                   : 8 bits
    Scan type                   : Progressive
    Bits/(Pixel*Frame)          : 0.103
    Stream size                 : 1.24 GiB (67%)
    Writing library             : x264 core 148 r2708 86b7198
    Encoding settings           : cabac=1 / ref=3 / deblock=1:0:0 / analyse=0x3:0x113 / me=hex / subme=7 / psy=1 / psy_rd=1.00:0.00 / mixed_ref=1 / me_range=16 / chroma_me=1 / trellis=1 / 8x8dct=1 / cqm=0 / deadzone=21,11 / fast_pskip=1 / chroma_qp_offset=-2 / threads=17 / lookahead_threads=2 / sliced_threads=0 / nr=0 / decimate=1 / interlaced=0 / bluray_compat=0 / constrained_intra=0 / bframes=3 / b_pyramid=2 / b_adapt=1 / b_bias=0 / direct=1 / weightb=1 / open_gop=0 / weightp=2 / keyint=240 / keyint_min=24 / scenecut=40 / intra_refresh=0 / rc_lookahead=40 / rc=abr / mbtree=1 / bitrate=1700 / ratetol=1.0 / qcomp=0.60 / qpmin=0 / qpmax=69 / qpstep=4 / vbv_maxrate=62500 / vbv_bufsize=78125 / nal_hrd=none / filler=0 / ip_ratio=1.40 / aq=1:1.00
    Default                     : Yes
    Forced                      : No
    Color range                 : Limited
    Color primaries             : BT.709
    Transfer characteristics    : BT.709
    Matrix coefficients         : BT.709
    Statistics Tags Issue       : mkvmerge v10.0.0 ('To Drown In You') 64bit 2017-06-15 03:55:02 / mkvmerge v10.0.0 ('To Drown In You') 64bit 2017-06-15 03:55:02 / UTC 2017-06-15T00:22:18Z
    FromStats_BitRate           : 1690432
    FromStats_Duration          : 01:47:49.375000000
    FromStats_FrameCount        : 155265
    FromStats_StreamSize        : 1367005273

    Audio #1
    ID                          : 2
    Format                      : AC-3
    Format/Info                 : Audio Coding 3
    Format settings, Endianness : Big
    Codec ID                    : A_AC3
    Duration                    : 1 h 48 min
    Bit rate mode               : Constant
    Bit rate                    : 384 kb/s
    Channel(s)                  : 6 channels
    Channel positions           : Front: L C R, Side: L R, LFE
    Sampling rate               : 48.0 kHz
    Frame rate                  : 31.250 FPS (1536 spf)
    Bit depth                   : 16 bits
    Compression mode            : Lossy
    Delay relative to video     : 7 ms
    Stream size                 : 297 MiB (16%)
    Title                       : Surround
    Language                    : Spanish
    Service kind                : Complete Main
    Default                     : Yes
    Forced                      : No
    Statistics Tags Issue       : mkvmerge v10.0.0 ('To Drown In You') 64bit 2017-06-15 03:55:02 / mkvmerge v10.0.0 ('To Drown In You') 64bit 2017-06-15 03:55:02 / UTC 2017-06-15T00:22:18Z
    FromStats_BitRate           : 384000
    FromStats_Duration          : 01:48:11.136000000
    FromStats_FrameCount        : 202848
    FromStats_StreamSize        : 311574528

    Audio #2
    ID                          : 3
    Format                      : AC-3
    Format/Info                 : Audio Coding 3
    Format settings, Endianness : Big
    Codec ID                    : A_AC3
    Duration                    : 1 h 48 min
    Bit rate mode               : Constant
    Bit rate                    : 384 kb/s
    Channel(s)                  : 6 channels
    Channel positions           : Front: L C R, Side: L R, LFE
    Sampling rate               : 48.0 kHz
    Frame rate                  : 31.250 FPS (1536 spf)
    Bit depth                   : 16 bits
    Compression mode            : Lossy
    Delay relative to video     : -5 ms
    Stream size                 : 297 MiB (16%)
    Title                       : Surround
    Service kind                : Complete Main
    Default                     : No
    Forced                      : No
    Statistics Tags Issue       : mkvmerge v10.0.0 ('To Drown In You') 64bit 2017-06-15 03:55:02 / mkvmerge v10.0.0 ('To Drown In You') 64bit 2017-06-15 03:55:02 / UTC 2017-06-15T00:22:18Z
    FromStats_BitRate           : 384000
    FromStats_Duration          : 01:47:49.376000000
    FromStats_FrameCount        : 202168
    FromStats_StreamSize        : 310530048

    Text #1
    ID                          : 4
    Format                      : UTF-8
    Codec ID                    : S_TEXT/UTF8
    Codec ID/Info               : UTF-8 Plain Text
    Language                    : Spanish
    Default                     : No
    Forced                      : No
    Statistics Tags Issue       : mkvmerge v10.0.0 ('To Drown In You') 64bit 2017-06-15 03:55:02 / mkvmerge v10.0.0 ('To Drown In You') 64bit 2017-06-15 03:55:02 / UTC 2017-06-15T00:22:18Z
    FromStats_BitRate           : 65
    FromStats_Duration          : 01:47:38.375000000
    FromStats_FrameCount        : 1623
    FromStats_StreamSize        : 52539

    Text #2
    ID                          : 5
    Format                      : UTF-8
    Codec ID                    : S_TEXT/UTF8
    Codec ID/Info               : UTF-8 Plain Text
    Title                       : FORZADOS
    Language                    : Spanish
    Default                     : Yes
    Forced                      : No
    Statistics Tags Issue       : mkvmerge v10.0.0 ('To Drown In You') 64bit 2017-06-15 03:55:02 / mkvmerge v10.0.0 ('To Drown In You') 64bit 2017-06-15 03:55:02 / UTC 2017-06-15T00:22:18Z
    FromStats_BitRate           : 1
    FromStats_Duration          : 01:47:38.375000000
    FromStats_FrameCount        : 34
    FromStats_StreamSize        : 1361

    Menu
    00:00:00.000                : :Chapter 1
    00:01:38.333                : :Chapter 2
    00:20:13.708                : :Chapter 3
    00:37:51.292                : :Chapter 4
    00:50:34.583                : :Chapter 5
    01:01:20.792                : :Chapter 6
    01:18:03.542                : :Chapter 7
    01:32:40.792                : :Chapter 8
    01:43:27.333                : :Chapter 9

  • Peso: 1,85 GB

Sinopsis

Secuela de “El abuelo que saltó por la ventana y se largó” (2013). En esta ocasión , un excéntrico ex espía con problemas económicos y Allan Karlsson, su compañero de 101 años, emprenderán una misión para intentar conseguir la valiosa fórmula de un refresco soviético de los años 70. Desafortunadamente, no serán los únicos que vayan tras la bebida.

Ficha técnica

  • Titulo original: Hundraettåringen som smet från notan och försvann
  • Fecha de lanzamiento: 25-12-2016 (Sweden)
  • Director: Felix Herngren, Måns Herngren
  • Género: Aventura, Comedia
  • Puntuación: 0.0 0 votos
  • Duración:
    1h 48m

Imágenes, Capturas de la película

Video trailer de la película

Enlaces de descarga

Descargar El abuelo que no pagó la cuenta y se largo (2016) 720p Latino
Descargar

dpeliculas

Aportes de DPeliculasHDmega la pass es:dpeliculashdmega.org Aportes de CinemaniaHD la pass es:cinemaniahdd.com
Guardado en : Aventura , Comedia

PelícuDelas relacionadas

Comentarios 0