El abuelo que no pagó la cuenta y se largo (2016) 1080p Latino

747 vistas
1 estrella2 estrellas3 estrellas4 estrellas5 estrellas (Ninguna valoración todavía)
Cargando…

Información de El abuelo que no pagó la cuenta y se largo (2016) 1080p Latino

Datos de la película

  • Calidad: 1080p
  • Audio: Español Latino AC3 5.1 DVD - Ingles AC3 5.1 BLURAY
  • Subtitulos: Español Latino SRT - Ingles SRT
  • Resolución: 1920x804p
  • Formato: MKV
  • Codec: H.264
  • Encoder: Dpelis
  • Mediainfo: Ver Ver
  • The.101.year.old.man.2017.1080p.LATINO.mkv
    Format                      : Matroska
    Format version              : Version 4 / Version 2
    File size                   : 3.21 GiB
    Duration                    : 1 h 48 min
    Overall bit rate            : 4 246 kb/s
    Movie name                  : DPeliculasHDMega.ORG
    Encoded date                : UTC 2017-06-15 11:57:37 / UTC 2017-06-15T03:19:36Z
    Writing application         : mkvmerge v10.0.0 ('To Drown In You') 64bit
    Writing library             : libebml v1.3.4 + libmatroska v1.4.5 / Lavf57.7.2

    Video
    ID                          : 1
    Format                      : AVC
    Format/Info                 : Advanced Video Codec
    Format profile              : [email protected]
    Format settings, CABAC      : Yes
    Format settings, ReFrames   : 4 frames
    Codec ID                    : V_MPEG4/ISO/AVC
    Duration                    : 1 h 48 min
    Bit rate                    : 3 500 kb/s
    Width                       : 1 920 pixels
    Height                      : 804 pixels
    Display aspect ratio        : 2.40:1
    Frame rate mode             : Constant
    Frame rate                  : 24.000 FPS
    Color space                 : YUV
    Chroma subsampling          : 4:2:0
    Bit depth                   : 8 bits
    Scan type                   : Progressive
    Bits/(Pixel*Frame)          : 0.094
    Stream size                 : 2.56 GiB (80%)
    Writing library             : x264 core 148 r2708 86b7198
    Encoding settings           : cabac=1 / ref=3 / deblock=1:0:0 / analyse=0x3:0x113 / me=hex / subme=7 / psy=1 / psy_rd=1.00:0.00 / mixed_ref=1 / me_range=16 / chroma_me=1 / trellis=1 / 8x8dct=1 / cqm=0 / deadzone=21,11 / fast_pskip=1 / chroma_qp_offset=-2 / threads=25 / lookahead_threads=4 / sliced_threads=0 / nr=0 / decimate=1 / interlaced=0 / bluray_compat=0 / constrained_intra=0 / bframes=3 / b_pyramid=2 / b_adapt=1 / b_bias=0 / direct=1 / weightb=1 / open_gop=0 / weightp=2 / keyint=240 / keyint_min=24 / scenecut=40 / intra_refresh=0 / rc_lookahead=40 / rc=abr / mbtree=1 / bitrate=3500 / ratetol=1.0 / qcomp=0.60 / qpmin=0 / qpmax=69 / qpstep=4 / vbv_maxrate=62500 / vbv_bufsize=78125 / nal_hrd=none / filler=0 / ip_ratio=1.40 / aq=1:1.00
    Default                     : Yes
    Forced                      : No
    Color range                 : Limited
    Color primaries             : BT.709
    Transfer characteristics    : BT.709
    Matrix coefficients         : BT.709
    Statistics Tags Issue       : mkvmerge v10.0.0 ('To Drown In You') 64bit 2017-06-15 11:57:37 / mkvmerge v10.0.0 ('To Drown In You') 64bit 2017-06-15 11:57:37 / UTC 2017-06-15T03:19:36Z
    FromStats_BitRate           : 3481582
    FromStats_Duration          : 01:47:49.375000000
    FromStats_FrameCount        : 155265
    FromStats_StreamSize        : 2815458099

    Audio #1
    ID                          : 2
    Format                      : AC-3
    Format/Info                 : Audio Coding 3
    Format settings, Endianness : Big
    Codec ID                    : A_AC3
    Duration                    : 1 h 48 min
    Bit rate mode               : Constant
    Bit rate                    : 384 kb/s
    Channel(s)                  : 6 channels
    Channel positions           : Front: L C R, Side: L R, LFE
    Sampling rate               : 48.0 kHz
    Frame rate                  : 31.250 FPS (1536 spf)
    Bit depth                   : 16 bits
    Compression mode            : Lossy
    Delay relative to video     : 7 ms
    Stream size                 : 297 MiB (9%)
    Title                       : Surround
    Language                    : Spanish
    Service kind                : Complete Main
    Default                     : Yes
    Forced                      : No
    Statistics Tags Issue       : mkvmerge v10.0.0 ('To Drown In You') 64bit 2017-06-15 11:57:37 / mkvmerge v10.0.0 ('To Drown In You') 64bit 2017-06-15 11:57:37 / UTC 2017-06-15T03:19:36Z
    FromStats_BitRate           : 384000
    FromStats_Duration          : 01:48:11.136000000
    FromStats_FrameCount        : 202848
    FromStats_StreamSize        : 311574528

    Audio #2
    ID                          : 3
    Format                      : AC-3
    Format/Info                 : Audio Coding 3
    Format settings, Endianness : Big
    Codec ID                    : A_AC3
    Duration                    : 1 h 48 min
    Bit rate mode               : Constant
    Bit rate                    : 384 kb/s
    Channel(s)                  : 6 channels
    Channel positions           : Front: L C R, Side: L R, LFE
    Sampling rate               : 48.0 kHz
    Frame rate                  : 31.250 FPS (1536 spf)
    Bit depth                   : 16 bits
    Compression mode            : Lossy
    Delay relative to video     : -5 ms
    Stream size                 : 297 MiB (9%)
    Title                       : Surround
    Language                    : English
    Service kind                : Complete Main
    Default                     : No
    Forced                      : No
    Statistics Tags Issue       : mkvmerge v10.0.0 ('To Drown In You') 64bit 2017-06-15 11:57:37 / mkvmerge v10.0.0 ('To Drown In You') 64bit 2017-06-15 11:57:37 / UTC 2017-06-15T03:19:36Z
    FromStats_BitRate           : 384000
    FromStats_Duration          : 01:47:49.376000000
    FromStats_FrameCount        : 202168
    FromStats_StreamSize        : 310530048

    Text #1
    ID                          : 4
    Format                      : PGS
    Muxing mode                 : zlib
    Codec ID                    : S_HDMV/PGS
    Codec ID/Info               : Picture based subtitle format used on BDs/HD-DVDs
    Language                    : Spanish
    Default                     : No
    Forced                      : No
    Statistics Tags Issue       : mkvmerge v10.0.0 ('To Drown In You') 64bit 2017-06-15 11:57:37 / mkvmerge v10.0.0 ('To Drown In You') 64bit 2017-06-15 11:57:37 / UTC 2017-06-15T03:19:36Z
    FromStats_BitRate           : 7162
    FromStats_Duration          : 01:47:38.375000000
    FromStats_FrameCount        : 3246
    FromStats_StreamSize        : 5782047

    Text #2
    ID                          : 5
    Format                      : PGS
    Muxing mode                 : zlib
    Codec ID                    : S_HDMV/PGS
    Codec ID/Info               : Picture based subtitle format used on BDs/HD-DVDs
    Language                    : Spanish
    Default                     : No
    Forced                      : No
    Statistics Tags Issue       : mkvmerge v10.0.0 ('To Drown In You') 64bit 2017-06-15 11:57:37 / mkvmerge v10.0.0 ('To Drown In You') 64bit 2017-06-15 11:57:37 / UTC 2017-06-15T03:19:36Z
    FromStats_BitRate           : 188
    FromStats_Duration          : 01:47:38.375000000
    FromStats_FrameCount        : 68
    FromStats_StreamSize        : 152080

    Text #3
    ID                          : 6
    Format                      : UTF-8
    Codec ID                    : S_TEXT/UTF8
    Codec ID/Info               : UTF-8 Plain Text
    Language                    : Spanish
    Default                     : No
    Forced                      : No
    Statistics Tags Issue       : mkvmerge v10.0.0 ('To Drown In You') 64bit 2017-06-15 11:57:37 / mkvmerge v10.0.0 ('To Drown In You') 64bit 2017-06-15 11:57:37 / UTC 2017-06-15T03:19:36Z
    FromStats_BitRate           : 65
    FromStats_Duration          : 01:47:38.375000000
    FromStats_FrameCount        : 1623
    FromStats_StreamSize        : 52539

    Text #4
    ID                          : 7
    Format                      : UTF-8
    Codec ID                    : S_TEXT/UTF8
    Codec ID/Info               : UTF-8 Plain Text
    Language                    : Spanish
    Default                     : Yes
    Forced                      : No
    Statistics Tags Issue       : mkvmerge v10.0.0 ('To Drown In You') 64bit 2017-06-15 11:57:37 / mkvmerge v10.0.0 ('To Drown In You') 64bit 2017-06-15 11:57:37 / UTC 2017-06-15T03:19:36Z
    FromStats_BitRate           : 1
    FromStats_Duration          : 01:47:38.375000000
    FromStats_FrameCount        : 34
    FromStats_StreamSize        : 1361

    Menu
    00:00:00.000                : :Chapter 1
    00:01:38.333                : :Chapter 2
    00:20:13.708                : :Chapter 3
    00:37:51.292                : :Chapter 4
    00:50:34.583                : :Chapter 5
    01:01:20.792                : :Chapter 6
    01:18:03.542                : :Chapter 7
    01:32:40.792                : :Chapter 8
    01:43:27.333                : :Chapter 9

  • Peso: 3.21 GB

Sinopsis

Un excéntrico exespía con problemas económicos y su octogenario compañero emprenden una misión para conseguir la valiosa fórmula de un refresco soviético.

Ficha técnica

Imágenes, Capturas de la película

Video trailer de la película

Enlaces de descarga

Descargar El abuelo que no pagó la cuenta y se largo (2016) 1080p Latino
Descargar

dpeliculas

Aportes de DPeliculasHDmega la pass es:dpeliculashdmega.org Aportes de CinemaniaHD la pass es:cinemaniahdd.com
Guardado en : Aventura , Comedia

PelícuDelas relacionadas

  • La momia (2017) Webdl 1080p Latino

    2017
    La momia (2017) Webdl 1080p Latino

    4.0 1h 50m 2017

    Descargar La momia 2017 1080p webdl  Latino, esta pelicula estara disponible con audio latino final...

    Director: Jo Beckett

    Género: Acción

    Actores: Vera Chok

  • Batman & Harley Quinn (2017) Full Latino

    2017
    Batman & Harley Quinn (2017) Full Latino

    0.0 0h 0m 2017

    Descargar gratis Batman & Harley Quinn (2017) Full Latino. Batman y Nighwing debrán unir fuerzas...

    Director: Sam Liu

    Género: Acción

    Actores: Trevor Devall

  • Spark: A Space Tail (2016) 1080p Latino

    2017
    Spark: A Space Tail (2016) 1080p Latino

    0.0 1h 30m 2017

    Hace 13 años el malvado General Zhong tomó el control del planeta Bana. Ahora no solo quiere gobernar...

    Director: Aaron Woodley

    Género: Animación

    Actores: Susan Sarandon

Comentarios 4
  • alex - 17 Junio, 2017

    nop me sale links q intentas descargar ya no estan disponibles :'( 🙁

    • dpelis

      Administrador
      - 18 Junio, 2017

      enlaces disponible, el problema q mega limito y como ya supero el limite mega le marca enlaces caidos,

  • alex - 16 Junio, 2017

    links!! de mega caidos :/ 🙁

    • dpelis

      Administrador
      - 16 Junio, 2017

      mega 1fichier online. estimado.