Dragonheart: Battle for the Heartfire (2017) 1080p Latino

1.669 vistas
1 estrella2 estrellas3 estrellas4 estrellas5 estrellas (Ninguna valoración todavía)
Cargando…

Información de Dragonheart: Battle for the Heartfire (2017) 1080p Latino

Datos de la película

  • Calidad: 1080p
  • Audio: Español Latino AC3 5.1 BLURAY - Ingles AC3 5.1 BLURAY
  • Subtitulos: Español Latino SRT - Ingles SRT
  • Resolución: 1920x1080p
  • Formato: MKV
  • Codec: H.264
  • Encoder: Dpelis
  • Mediainfo: Ver Ver
  • Dragonheart.battle.for.the.heartfire.2017.1080p.LATINO.mkv
    Format                      : Matroska
    Format version              : Version 4 / Version 2
    File size                   : 4.60 GiB
    Duration                    : 1 h 37 min
    Overall bit rate            : 6 744 kb/s
    Movie name                  : DPeliculasHDMega.ORG
    Encoded date                : UTC 2017-06-08 00:44:05 / UTC 2017-06-07T21:16:02Z
    Writing application         : mkvmerge v10.0.0 ('To Drown In You') 64bit
    Writing library             : libebml v1.3.4 + libmatroska v1.4.5 / Lavf57.7.2

    Video
    ID                          : 1
    Format                      : AVC
    Format/Info                 : Advanced Video Codec
    Format profile              : [email protected]
    Format settings, CABAC      : Yes
    Format settings, ReFrames   : 4 frames
    Codec ID                    : V_MPEG4/ISO/AVC
    Duration                    : 1 h 37 min
    Bit rate                    : 5 842 kb/s
    Width                       : 1 920 pixels
    Height                      : 1 080 pixels
    Display aspect ratio        : 16:9
    Frame rate mode             : Constant
    Frame rate                  : 23.976 (24000/1001) FPS
    Color space                 : YUV
    Chroma subsampling          : 4:2:0
    Bit depth                   : 8 bits
    Scan type                   : Progressive
    Bits/(Pixel*Frame)          : 0.117
    Stream size                 : 3.99 GiB (87%)
    Writing library             : x264 core 148 r2708 86b7198
    Encoding settings           : cabac=1 / ref=3 / deblock=1:0:0 / analyse=0x3:0x113 / me=hex / subme=7 / psy=1 / psy_rd=1.00:0.00 / mixed_ref=1 / me_range=16 / chroma_me=1 / trellis=1 / 8x8dct=1 / cqm=0 / deadzone=21,11 / fast_pskip=1 / chroma_qp_offset=-2 / threads=12 / lookahead_threads=2 / sliced_threads=0 / nr=0 / decimate=1 / interlaced=0 / bluray_compat=0 / constrained_intra=0 / bframes=3 / b_pyramid=2 / b_adapt=1 / b_bias=0 / direct=1 / weightb=1 / open_gop=0 / weightp=2 / keyint=240 / keyint_min=24 / scenecut=40 / intra_refresh=0 / rc_lookahead=40 / rc=crf / mbtree=1 / crf=20.0 / qcomp=0.60 / qpmin=0 / qpmax=69 / qpstep=4 / vbv_maxrate=62500 / vbv_bufsize=78125 / crf_max=0.0 / nal_hrd=none / filler=0 / ip_ratio=1.40 / aq=1:1.00
    Default                     : Yes
    Forced                      : No
    Color range                 : Limited
    Color primaries             : BT.709
    Transfer characteristics    : BT.709
    Matrix coefficients         : BT.709
    Statistics Tags Issue       : mkvmerge v10.0.0 ('To Drown In You') 64bit 2017-06-08 00:44:05 / mkvmerge v10.0.0 ('To Drown In You') 64bit 2017-06-08 00:44:05 / UTC 2017-06-07T21:16:02Z
    FromStats_BitRate           : 5973465
    FromStats_Duration          : 01:37:45.068000000
    FromStats_FrameCount        : 140621
    FromStats_StreamSize        : 4379347410

    Audio #1
    ID                          : 2
    Format                      : AC-3
    Format/Info                 : Audio Coding 3
    Format settings, Endianness : Big
    Codec ID                    : A_AC3
    Duration                    : 1 h 37 min
    Bit rate mode               : Constant
    Bit rate                    : 384 kb/s
    Channel(s)                  : 6 channels
    Channel positions           : Front: L C R, Side: L R, LFE
    Sampling rate               : 48.0 kHz
    Frame rate                  : 31.250 FPS (1536 spf)
    Bit depth                   : 16 bits
    Compression mode            : Lossy
    Delay relative to video     : -5 ms
    Stream size                 : 268 MiB (6%)
    Language                    : Spanish
    Service kind                : Complete Main
    Default                     : Yes
    Forced                      : No
    Statistics Tags Issue       : mkvmerge v10.0.0 ('To Drown In You') 64bit 2017-06-08 00:44:05 / mkvmerge v10.0.0 ('To Drown In You') 64bit 2017-06-08 00:44:05 / UTC 2017-06-07T21:16:02Z
    FromStats_BitRate           : 384000
    FromStats_Duration          : 01:37:45.056000000
    FromStats_FrameCount        : 183283
    FromStats_StreamSize        : 281522688

    Audio #2
    ID                          : 3
    Format                      : AC-3
    Format/Info                 : Audio Coding 3
    Format settings, Endianness : Big
    Codec ID                    : A_AC3
    Duration                    : 1 h 37 min
    Bit rate mode               : Constant
    Bit rate                    : 384 kb/s
    Channel(s)                  : 6 channels
    Channel positions           : Front: L C R, Side: L R, LFE
    Sampling rate               : 48.0 kHz
    Frame rate                  : 31.250 FPS (1536 spf)
    Bit depth                   : 16 bits
    Compression mode            : Lossy
    Delay relative to video     : -5 ms
    Stream size                 : 268 MiB (6%)
    Title                       : Surround
    Language                    : English
    Service kind                : Complete Main
    Default                     : No
    Forced                      : No
    Statistics Tags Issue       : mkvmerge v10.0.0 ('To Drown In You') 64bit 2017-06-08 00:44:05 / mkvmerge v10.0.0 ('To Drown In You') 64bit 2017-06-08 00:44:05 / UTC 2017-06-07T21:16:02Z
    FromStats_BitRate           : 384000
    FromStats_Duration          : 01:37:45.088000000
    FromStats_FrameCount        : 183284
    FromStats_StreamSize        : 281524224

    Text #1
    ID                          : 4
    Format                      : UTF-8
    Codec ID                    : S_TEXT/UTF8
    Codec ID/Info               : UTF-8 Plain Text
    Language                    : Spanish
    Default                     : Yes
    Forced                      : No
    Statistics Tags Issue       : mkvmerge v10.0.0 ('To Drown In You') 64bit 2017-06-08 00:44:05 / mkvmerge v10.0.0 ('To Drown In You') 64bit 2017-06-08 00:44:05 / UTC 2017-06-07T21:16:02Z
    FromStats_BitRate           : 40
    FromStats_Duration          : 01:32:34.637000000
    FromStats_FrameCount        : 892
    FromStats_StreamSize        : 28223

    Text #2
    ID                          : 5
    Format                      : UTF-8
    Codec ID                    : S_TEXT/UTF8
    Codec ID/Info               : UTF-8 Plain Text
    Language                    : English
    Default                     : No
    Forced                      : No
    Statistics Tags Issue       : mkvmerge v10.0.0 ('To Drown In You') 64bit 2017-06-08 00:44:05 / mkvmerge v10.0.0 ('To Drown In You') 64bit 2017-06-08 00:44:05 / UTC 2017-06-07T21:16:02Z
    FromStats_BitRate           : 46
    FromStats_Duration          : 01:33:25.451000000
    FromStats_FrameCount        : 1174
    FromStats_StreamSize        : 32915

    Menu
    00:00:00.000                : :00:00:00.000
    00:03:39.344                : :00:03:39.344
    00:07:40.502                : :00:07:40.502
    00:13:19.299                : :00:13:19.298
    00:19:46.602                : :00:19:46.602
    00:24:57.621                : :00:24:57.621
    00:30:13.186                : :00:30:13.186
    00:35:54.653                : :00:35:54.652
    00:39:54.350                : :00:39:54.350
    00:45:37.109                : :00:45:37.109
    00:48:57.560                : :00:48:57.560
    00:51:23.831                : :00:51:23.831
    00:56:22.588                : :00:56:22.588
    01:00:07.979                : :01:00:07.979
    01:06:41.873                : :01:06:41.873
    01:14:41.602                : :01:14:41.602
    01:19:00.486                : :01:19:00.486
    01:22:40.998                : :01:22:40.998
    01:29:40.625                : :01:29:40.625
    01:34:10.812                : :01:34:10.687

  • Peso: 4.60 GB

Sinopsis

Cuando el rey Gareth muere, sus herederos potenciales, nietos gemelos que poseen las fuerzas únicas del dragón, utilizan sus poderes heredados uno contra el otro para disputar el trono. Cuando la fuente de poder de Drago – conocida como el Heartfire – es robada, más que el trono está en juego; Los hermanos deben terminar su rivalidad con espadas y hechicería o el reino puede caer.

Ficha técnica

  • Titulo original: Dragonheart: Battle for the Heartfire
  • Fecha de lanzamiento: 13-06-2017
  • Director: Patrik Syversen
  • Género: Fantasía
  • Puntuación: 0.0 0 votos
  • Duración:
    1h 37m

Imágenes, Capturas de la película

Video trailer de la película

Enlaces de descarga

Descargar Dragonheart: Battle for the Heartfire (2017) 1080p Latino
Descargar
Descargar

dpeliculas

Aportes de DPeliculasHDmega la pass es:dpeliculashdmega.org Aportes de CinemaniaHD la pass es:cinemaniahdd.com
Guardado en : Fantasía

PelícuDelas relacionadas

  • Kong La isla Calavera (2017) WEBDL 720p Latino

    2017
    Kong La isla Calavera (2017) WEBDL 720p Latino

    0.0 1h 58m 2017

    En la película, un diverso equipo de exploradores es reunido para aventurarse en el interior de una...

    Director: Jordan Vogt-Roberts

    Género: Acción

    Actores: Will Brittain

  • Kong La isla Calavera (2017) WEBDL 1080p Latino

    2017
    Kong La isla Calavera (2017) WEBDL 1080p Latino

    0.0 1h 58m 2017

    Descargar Gratis Pelicula de Kong La isla Calavera hd Latino, Un grupo de viajeros, exploradores y soldados...

    Director: Jordan Vogt-Roberts

    Género: Acción

    Actores: Will Brittain

  • Batman La LEGO película (2017) 3D OU Full Latino

    2017
    Batman La LEGO película (2017) 3D OU Full Latino

    0.0 1h 44m 2017

    Descargar La Pelicula Batman Lego 3D OU Spin-off de "La LEGO Película", protagonizado por Batman. En...

    Director: Chris McKay

    Género: Acción

    Actores: Zoë Kravitz

  • Los fantasmas de mis ex-novias (2009) 1080p Latino

    2009
    Los fantasmas de mis ex-novias (2009) 1080p Latino

    0.0 1h 36m 2009

    Connor Mead (Matthew McConaughey), fotógrafo de famosos, adora su libertad, la diversión y las mujeres...

    Director: Mark Waters

    Género: Comedia

    Actores: Robert Forster

Comentarios 2
  • Jared - 20 Junio, 2017

    Hola Gracias por la pelicula. La password es la de siempre, no cambia: dpeliculashdmega.org

  • jesus - 11 Junio, 2017

    Saludos siemre impresionado con las pelis y la calidad. porfa tengo problemas para descomprimir me dice contrasena incorrecta. tengo mas de 2 anos descargando pelis de aca y primera vez q me pasa