Don’t Think Twice (2016) 1080p Latino

652 vistas
1 estrella2 estrellas3 estrellas4 estrellas5 estrellas (Ninguna valoración todavía)
Cargando…

Información de Don’t Think Twice (2016) 1080p Latino

Datos de la película

  • Calidad: 1080p
  • Audio: Español Latino AC3 5.1 DVD - Ingles AC3 5.1 BLURAY
  • Subtitulos: Español Latino SRT - Ingles SRT
  • Resolución: 1920x800p
  • Formato: MKV
  • Codec: H.264
  • Encoder: Dpelis
  • Mediainfo: Ver Ver
  • Don't.think.twice.2016.1080p.latino.mkv
    Format                      : Matroska
    Format version              : Version 4 / Version 2
    File size                   : 2.70 GiB
    Duration                    : 1 h 32 min
    Overall bit rate            : 4 195 kb/s
    Encoded date                : UTC 2017-07-02 05:57:49 / UTC 2017-07-02T03:12:06Z
    Writing application         : mkvmerge v10.0.0 ('To Drown In You') 64bit
    Writing library             : libebml v1.3.4 + libmatroska v1.4.5 / Lavf57.7.2

    Video
    ID                          : 1
    Format                      : AVC
    Format/Info                 : Advanced Video Codec
    Format profile              : [email protected]
    Format settings, CABAC      : Yes
    Format settings, ReFrames   : 4 frames
    Codec ID                    : V_MPEG4/ISO/AVC
    Duration                    : 1 h 32 min
    Bit rate                    : 3 500 kb/s
    Width                       : 1 920 pixels
    Height                      : 800 pixels
    Display aspect ratio        : 2.40:1
    Frame rate mode             : Constant
    Frame rate                  : 23.976 (24000/1001) FPS
    Color space                 : YUV
    Chroma subsampling          : 4:2:0
    Bit depth                   : 8 bits
    Scan type                   : Progressive
    Bits/(Pixel*Frame)          : 0.095
    Stream size                 : 2.15 GiB (80%)
    Writing library             : x264 core 148 r2708 86b7198
    Encoding settings           : cabac=1 / ref=3 / deblock=1:0:0 / analyse=0x3:0x113 / me=hex / subme=7 / psy=1 / psy_rd=1.00:0.00 / mixed_ref=1 / me_range=16 / chroma_me=1 / trellis=1 / 8x8dct=1 / cqm=0 / deadzone=21,11 / fast_pskip=1 / chroma_qp_offset=-2 / threads=12 / lookahead_threads=2 / sliced_threads=0 / nr=0 / decimate=1 / interlaced=0 / bluray_compat=0 / constrained_intra=0 / bframes=3 / b_pyramid=2 / b_adapt=1 / b_bias=0 / direct=1 / weightb=1 / open_gop=0 / weightp=2 / keyint=240 / keyint_min=24 / scenecut=40 / intra_refresh=0 / rc_lookahead=40 / rc=abr / mbtree=1 / bitrate=3500 / ratetol=1.0 / qcomp=0.60 / qpmin=0 / qpmax=69 / qpstep=4 / vbv_maxrate=62500 / vbv_bufsize=78125 / nal_hrd=none / filler=0 / ip_ratio=1.40 / aq=1:1.00
    Default                     : Yes
    Forced                      : No
    Color range                 : Limited
    Color primaries             : BT.709
    Transfer characteristics    : BT.709
    Matrix coefficients         : BT.709
    Statistics Tags Issue       : mkvmerge v10.0.0 ('To Drown In You') 64bit 2017-07-02 05:57:49 / mkvmerge v10.0.0 ('To Drown In You') 64bit 2017-07-02 05:57:49 / UTC 2017-07-02T03:12:06Z
    FromStats_BitRate           : 3424868
    FromStats_Duration          : 01:32:05.145000000
    FromStats_FrameCount        : 132471
    FromStats_StreamSize        : 2365361690

    Audio #1
    ID                          : 2
    Format                      : AC-3
    Format/Info                 : Audio Coding 3
    Format settings, Endianness : Big
    Codec ID                    : A_AC3
    Duration                    : 1 h 32 min
    Bit rate mode               : Constant
    Bit rate                    : 384 kb/s
    Channel(s)                  : 6 channels
    Channel positions           : Front: L C R, Side: L R, LFE
    Sampling rate               : 48.0 kHz
    Frame rate                  : 31.250 FPS (1536 spf)
    Bit depth                   : 16 bits
    Compression mode            : Lossy
    Delay relative to video     : -5 ms
    Stream size                 : 253 MiB (9%)
    Title                       : Surround
    Language                    : Spanish
    Service kind                : Complete Main
    Default                     : Yes
    Forced                      : No
    Statistics Tags Issue       : mkvmerge v10.0.0 ('To Drown In You') 64bit 2017-07-02 05:57:49 / mkvmerge v10.0.0 ('To Drown In You') 64bit 2017-07-02 05:57:49 / UTC 2017-07-02T03:12:06Z
    FromStats_BitRate           : 384000
    FromStats_Duration          : 01:32:04.384000000
    FromStats_FrameCount        : 172637
    FromStats_StreamSize        : 265170432

    Audio #2
    ID                          : 3
    Format                      : AC-3
    Format/Info                 : Audio Coding 3
    Format settings, Endianness : Big
    Codec ID                    : A_AC3
    Duration                    : 1 h 32 min
    Bit rate mode               : Constant
    Bit rate                    : 384 kb/s
    Channel(s)                  : 6 channels
    Channel positions           : Front: L C R, Side: L R, LFE
    Sampling rate               : 48.0 kHz
    Frame rate                  : 31.250 FPS (1536 spf)
    Bit depth                   : 16 bits
    Compression mode            : Lossy
    Delay relative to video     : -5 ms
    Stream size                 : 253 MiB (9%)
    Title                       : Surround
    Language                    : English
    Service kind                : Complete Main
    Default                     : No
    Forced                      : No
    Statistics Tags Issue       : mkvmerge v10.0.0 ('To Drown In You') 64bit 2017-07-02 05:57:49 / mkvmerge v10.0.0 ('To Drown In You') 64bit 2017-07-02 05:57:49 / UTC 2017-07-02T03:12:06Z
    FromStats_BitRate           : 384000
    FromStats_Duration          : 01:32:05.120000000
    FromStats_FrameCount        : 172660
    FromStats_StreamSize        : 265205760

    Text #1
    ID                          : 4
    Format                      : UTF-8
    Codec ID                    : S_TEXT/UTF8
    Codec ID/Info               : UTF-8 Plain Text
    Language                    : Spanish
    Default                     : Yes
    Forced                      : No
    Statistics Tags Issue       : mkvmerge v10.0.0 ('To Drown In You') 64bit 2017-07-02 05:57:49 / mkvmerge v10.0.0 ('To Drown In You') 64bit 2017-07-02 05:57:49 / UTC 2017-07-02T03:12:06Z
    FromStats_BitRate           : 82
    FromStats_Duration          : 01:24:24.856000000
    FromStats_FrameCount        : 1527
    FromStats_StreamSize        : 52313

    Text #2
    ID                          : 5
    Format                      : UTF-8
    Codec ID                    : S_TEXT/UTF8
    Codec ID/Info               : UTF-8 Plain Text
    Language                    : English
    Default                     : No
    Forced                      : No
    Statistics Tags Issue       : mkvmerge v10.0.0 ('To Drown In You') 64bit 2017-07-02 05:57:49 / mkvmerge v10.0.0 ('To Drown In You') 64bit 2017-07-02 05:57:49 / UTC 2017-07-02T03:12:06Z
    FromStats_BitRate           : 99
    FromStats_Duration          : 01:24:54.848000000
    FromStats_FrameCount        : 1737
    FromStats_StreamSize        : 63135

    Menu
    00:00:00.000                : :Chapter 1
    00:04:06.955                : :Chapter 2
    00:09:58.723                : :Chapter 3
    00:15:34.851                : :Chapter 4
    00:20:48.748                : :Chapter 5
    00:24:22.086                : :Chapter 6
    00:28:00.304                : :Chapter 7
    00:32:38.832                : :Chapter 8
    00:36:03.036                : :Chapter 9
    00:39:41.921                : :Chapter 10
    00:44:56.694                : :Chapter 11
    00:49:35.514                : :Chapter 12
    00:54:44.698                : :Chapter 13
    00:58:03.981                : :Chapter 14
    01:01:57.339                : :Chapter 15
    01:07:11.486                : :Chapter 16
    01:11:54.727                : :Chapter 17
    01:17:09.708                : :Chapter 18
    01:21:26.882                : :Chapter 19
    01:26:18.382                : :Chapter 20

  • Peso: 2.70 GB

Sinopsis

Cuando un miembro de una popular compañía de improvisación de la ciudad de Nueva York recibe un gran descanso, el resto del grupo – todos los mejores amigos – empiezan a darse cuenta de que no todo el mundo lo va a hacer después de todo.

Ficha técnica

  • Titulo original: Don't Think Twice
  • Fecha de lanzamiento: 22-07-2016 (United States of America)
  • Director: Mike Birbiglia
  • Género: Comedia, Drama
  • Puntuación: 0.0 0 votos
  • Duración:
    1h 30m

Imágenes, Capturas de la película

Video trailer de la película

Enlaces de descarga

Descargar Don’t Think Twice (2016) 1080p Latino
Descargar

dpeliculas

Aportes de DPeliculasHDmega la pass es:dpeliculashdmega.org Aportes de CinemaniaHD la pass es:cinemaniahdd.com
Guardado en : Comedia , Drama

PelícuDelas relacionadas

  • Juego de Tronos (2016) Temporada 6 Full Latino

    2011/03/17
    Juego de Tronos (2016) Temporada 6 Full Latino

    0.0 60 Min. 2011/03/17

    Descargar gratis Juego de Tronos (2016) Temporada 6 Full Latino Sinopsis capitulo 1: Jon Nieve está...

    Director: David Benioff

    Género: Drama

    Actores: Sophie Turner

  • Juegos de Tronos (2015) Temporada 5 Full Latino

    2011/03/17
    Juegos de Tronos (2015) Temporada 5 Full Latino

    5.0 60 Min. 2011/03/17

    Descargar gratis Juegos de Tronos (2015) Temporada 5 Full Latino  Sinopsis captitulo 1: La reina Cersei...

    Director: David Benioff

    Género: Drama

    Actores: Sophie Turner

  • The Ring 2 (2005) WEB-DL 1080p Latino

    2005
    The Ring 2 (2005) WEB-DL 1080p Latino

    0.0 1h 51m 2005

    Descargar gratis The Ring 2 (2005) WEB-DL 1080p Latino. Para escapar de una vida que era una auténtica...

    Director: Trudy Ramirez

    Género: Drama

    Actores: Sissy Spacek

  • Invicto (2002) Full 1080p Latino

    2002
    Invicto (2002) Full 1080p Latino

    0.0 1h 33m 2002

    Descargar Undisputed hd latino tambine conocida con el titulo latino Invicto 1080p Latino El campeón...

    Director: Walter Hill

    Género: Acción

    Actores: Wesley Snipes

Comentarios 0