No Toques Dos veces (2016) 1080p Latino

2.664 vistas
1 estrella2 estrellas3 estrellas4 estrellas5 estrellas (1 votos, promedio: 4,00 de 5)
Cargando…

Información de No Toques Dos veces (2016) 1080p Latino

Datos de la película

  • Calidad: 1080p
  • Audio: Español Latino AC3 2.0 DVD - Ingles AC3 5.1 BLURAY
  • Subtitulos: Español Latino SRT - Ingles SRT
  • Resolución: 1906x800p
  • Formato: MKV
  • Codec: H.264
  • Encoder: Dpelis
  • Mediainfo: Ver Ver
  • Dont.knock.twice.2016.1080p.latino.mkv
    Format                      : Matroska
    Format version              : Version 4 / Version 2
    File size                   : 2.79 GiB
    Duration                    : 1 h 32 min
    Overall bit rate            : 4 293 kb/s
    Movie name                  : DPeiculasHDMega.ORG
    Encoded date                : UTC 2017-07-08 18:53:38 / UTC 2017-07-08T18:14:00Z
    Writing application         : mkvmerge v10.0.0 ('To Drown In You') 64bit
    Writing library             : libebml v1.3.4 + libmatroska v1.4.5 / Lavf57.7.2

    Video
    ID                          : 1
    Format                      : AVC
    Format/Info                 : Advanced Video Codec
    Format profile              : [email protected]
    Format settings, CABAC      : Yes
    Format settings, ReFrames   : 4 frames
    Codec ID                    : V_MPEG4/ISO/AVC
    Duration                    : 1 h 32 min
    Bit rate                    : 3 500 kb/s
    Width                       : 1 906 pixels
    Height                      : 800 pixels
    Display aspect ratio        : 2.40:1
    Frame rate mode             : Constant
    Frame rate                  : 23.976 (24000/1001) FPS
    Color space                 : YUV
    Chroma subsampling          : 4:2:0
    Bit depth                   : 8 bits
    Scan type                   : Progressive
    Bits/(Pixel*Frame)          : 0.096
    Stream size                 : 2.19 GiB (79%)
    Writing library             : x264 core 148 r2708 86b7198
    Encoding settings           : cabac=1 / ref=3 / deblock=1:0:0 / analyse=0x3:0x113 / me=hex / subme=7 / psy=1 / psy_rd=1.00:0.00 / mixed_ref=1 / me_range=16 / chroma_me=1 / trellis=1 / 8x8dct=1 / cqm=0 / deadzone=21,11 / fast_pskip=1 / chroma_qp_offset=-2 / threads=25 / lookahead_threads=4 / sliced_threads=0 / nr=0 / decimate=1 / interlaced=0 / bluray_compat=0 / constrained_intra=0 / bframes=3 / b_pyramid=2 / b_adapt=1 / b_bias=0 / direct=1 / weightb=1 / open_gop=0 / weightp=2 / keyint=240 / keyint_min=24 / scenecut=40 / intra_refresh=0 / rc_lookahead=40 / rc=abr / mbtree=1 / bitrate=3500 / ratetol=1.0 / qcomp=0.60 / qpmin=0 / qpmax=69 / qpstep=4 / vbv_maxrate=62500 / vbv_bufsize=78125 / nal_hrd=none / filler=0 / ip_ratio=1.40 / aq=1:1.00
    Default                     : Yes
    Forced                      : No
    Color range                 : Limited
    Color primaries             : BT.709
    Transfer characteristics    : BT.709
    Matrix coefficients         : BT.709
    Statistics Tags Issue       : mkvmerge v10.0.0 ('To Drown In You') 64bit 2017-07-08 18:53:38 / mkvmerge v10.0.0 ('To Drown In You') 64bit 2017-07-08 18:53:38 / UTC 2017-07-08T18:14:00Z
    FromStats_BitRate           : 3458747
    FromStats_Duration          : 01:32:58.782000000
    FromStats_FrameCount        : 133757
    FromStats_StreamSize        : 2411949503

    Audio #1
    ID                          : 2
    Format                      : AC-3
    Format/Info                 : Audio Coding 3
    Format settings, Endianness : Big
    Codec ID                    : A_AC3
    Duration                    : 1 h 32 min
    Bit rate mode               : Constant
    Bit rate                    : 320 kb/s
    Channel(s)                  : 2 channels
    Channel positions           : Front: L R,
    Sampling rate               : 48.0 kHz
    Frame rate                  : 31.250 FPS (1536 spf)
    Bit depth                   : 16 bits
    Compression mode            : Lossy
    Delay relative to video     : -5 ms
    Stream size                 : 298 MiB (10%)
    Language                    : Spanish
    Service kind                : Complete Main
    Default                     : Yes
    Forced                      : No
    Statistics Tags Issue       : mkvmerge v10.0.0 ('To Drown In You') 64bit 2017-07-08 18:53:38 / mkvmerge v10.0.0 ('To Drown In You') 64bit 2017-07-08 18:53:38 / UTC 2017-07-08T18:14:00Z
    FromStats_BitRate           : 448000
    FromStats_Duration          : 01:32:56.800000000
    FromStats_FrameCount        : 174275
    FromStats_StreamSize        : 312300800

    Audio #2
    ID                          : 3
    Format                      : AC-3
    Format/Info                 : Audio Coding 3
    Format settings, Endianness : Big
    Codec ID                    : A_AC3
    Duration                    : 1 h 32 min
    Bit rate mode               : Constant
    Bit rate                    : 384 kb/s
    Channel(s)                  : 6 channels
    Channel positions           : Front: L C R, Side: L R, LFE
    Sampling rate               : 48.0 kHz
    Frame rate                  : 31.250 FPS (1536 spf)
    Bit depth                   : 16 bits
    Compression mode            : Lossy
    Delay relative to video     : -5 ms
    Stream size                 : 255 MiB (9%)
    Title                       : Surround
    Language                    : English
    Service kind                : Complete Main
    Default                     : No
    Forced                      : No
    Statistics Tags Issue       : mkvmerge v10.0.0 ('To Drown In You') 64bit 2017-07-08 18:53:38 / mkvmerge v10.0.0 ('To Drown In You') 64bit 2017-07-08 18:53:38 / UTC 2017-07-08T18:14:00Z
    FromStats_BitRate           : 384000
    FromStats_Duration          : 01:32:58.720000000
    FromStats_FrameCount        : 174335
    FromStats_StreamSize        : 267778560

    Text #1
    ID                          : 4
    Format                      : UTF-8
    Codec ID                    : S_TEXT/UTF8
    Codec ID/Info               : UTF-8 Plain Text
    Default                     : Yes
    Forced                      : No
    Statistics Tags Issue       : mkvmerge v10.0.0 ('To Drown In You') 64bit 2017-07-08 18:53:38 / mkvmerge v10.0.0 ('To Drown In You') 64bit 2017-07-08 18:53:38 / UTC 2017-07-08T18:14:00Z
    FromStats_BitRate           : 31
    FromStats_Duration          : 01:27:26.006000000
    FromStats_FrameCount        : 717
    FromStats_StreamSize        : 20501

    Text #2
    ID                          : 5
    Format                      : UTF-8
    Codec ID                    : S_TEXT/UTF8
    Codec ID/Info               : UTF-8 Plain Text
    Default                     : No
    Forced                      : No
    Statistics Tags Issue       : mkvmerge v10.0.0 ('To Drown In You') 64bit 2017-07-08 18:53:38 / mkvmerge v10.0.0 ('To Drown In You') 64bit 2017-07-08 18:53:38 / UTC 2017-07-08T18:14:00Z
    FromStats_BitRate           : 31
    FromStats_Duration          : 01:28:52.747000000
    FromStats_FrameCount        : 722
    FromStats_StreamSize        : 21044

    Menu
    00:00:00.000                : :00:00:00.000
    00:08:01.940                : :00:08:01.815
    00:16:01.461                : :00:16:01.335
    00:21:55.648                : :00:21:55.564
    00:29:50.247                : :00:29:50.122
    00:35:46.269                : :00:35:46.227
    00:43:44.080                : :00:43:44.080
    00:52:34.818                : :00:52:34.693
    01:00:25.705                : :01:00:25.580
    01:08:18.720                : :01:08:18.720
    01:16:18.365                : :01:16:18.324
    01:26:59.506                : :01:26:59.381

  • Peso: 2.79 GB

Sinopsis

Descargar película del 2016, Dont knock twice en 1080p Latino, Una Madre Con Sentimiento de culpa (Sackhoff) quiere devolver un vínculo con la hija (Boynton) a la búsqueda abandonado. SALVAR párrafo sabía hija trastornada, por favor, a descubrir la terrible verdad detrás de una leyenda urbana Una de vengativa hay bruja demoníaca.

Ficha técnica

  • Titulo original: Don't Knock Twice
  • Fecha de lanzamiento: 03-02-2017 (United Kingdom)
  • Director: Caradog W. James, Nua Watford
  • Género: Terror
  • Puntuación: 4.0 1 votos
  • Duración:
    0h 0m

Imágenes, Capturas de la película

Video trailer de la película

Enlaces de descarga

Descargar No Toques Dos veces (2016) 1080p Latino
Descargar

dpeliculas

Aportes de DPeliculasHDmega la pass es:dpeliculashdmega.org Aportes de CinemaniaHD la pass es:cinemaniahdd.com
Guardado en : Terror

PelícuDelas relacionadas

  • La autopsia de Jane Doe (2016) 1080p Latino

    2016
    La autopsia de Jane Doe (2016) 1080p Latino

    4.0 1h 39m 2016

    Tommy y Austin Tilden regentan una morgue y un crematorio en Virginia. Un día, el sheriff local les...

    Director: Sheila McNaught

    Género: Misterio

    Actores: Parker Sawyers

  • The Ring 2 (2005) WEB-DL 1080p Latino

    2005
    The Ring 2 (2005) WEB-DL 1080p Latino

    0.0 1h 51m 2005

    Descargar gratis The Ring 2 (2005) WEB-DL 1080p Latino. Para escapar de una vida que era una auténtica...

    Director: Trudy Ramirez

    Género: Drama

    Actores: Sissy Spacek

  • The Ring (2002) Full Latino

    2002
    The Ring (2002) Full Latino

    0.0 1h 45m 2002

    Descargar gratis The Ring (2002) Full Latino. Rachel Keller es una periodista de investigación que no...

    Director: Gore Verbinski

    Género: Misterio

    Actores: Shannon Cochran

  • The Grudge 3 (2009) Full Latino

    2009
    The Grudge 3 (2009) Full Latino

    0.0 1h 30m 2009

    Descargar gratis The Grudge 3 (2009) Full Latino. Tercera entrega americana de la saga iniciada por Takashi...

    Director: Toby Wilkins

    Género: FULL 1080p Pesadas

    Actores: Shimba Tsuchiya

Comentarios 0