Dolores (2016) WEBDL Latino

727 vistas
1 estrella2 estrellas3 estrellas4 estrellas5 estrellas (Ninguna valoración todavía)
Cargando…

Información de Dolores (2016) WEBDL Latino

dolores argentina 1080p

Datos de la película

  • Calidad: WEBDL
  • Audio: Se especifica abajo de la Sinopsis
  • Subtitulos: No
  • Resolución: 1920x1080p
  • Formato: MKV
  • Codec: H.264
  • Encoder: Dpelis
  • Mediainfo: Ver Ver
  • Dolores 2016 (1080p HD)\Dolores.2016.WEBDL.Latino.mkv
    Format                      : Matroska
    Format version              : Version 4 / Version 2
    File size                   : 3.43 GiB
    Duration                    : 1 h 39 min
    Overall bit rate            : 4 912 kb/s
    Movie name                  : DPeliculasHDMega.ORG
    Encoded date                : UTC 2017-05-25 18:13:18
    Writing application         : mkvmerge v10.0.0 ('To Drown In You') 64bit
    Writing library             : libebml v1.3.4 + libmatroska v1.4.5

    Video
    ID                          : 2
    Format                      : AVC
    Format/Info                 : Advanced Video Codec
    Format profile              : [email protected]
    Format settings, CABAC      : Yes
    Format settings, ReFrames   : 5 frames
    Codec ID                    : V_MPEG4/ISO/AVC
    Duration                    : 1 h 39 min
    Bit rate                    : 4 526 kb/s
    Width                       : 1 912 pixels
    Height                      : 796 pixels
    Display aspect ratio        : 2.40:1
    Frame rate mode             : Constant
    Frame rate                  : 24.000 FPS
    Color space                 : YUV
    Chroma subsampling          : 4:2:0
    Bit depth                   : 8 bits
    Scan type                   : Progressive
    Bits/(Pixel*Frame)          : 0.124
    Stream size                 : 3.16 GiB (92%)
    Language                    : English
    Default                     : Yes
    Forced                      : No
    Color range                 : Limited
    Color primaries             : BT.709
    Transfer characteristics    : BT.709
    Matrix coefficients         : BT.709

    Audio
    ID                          : 1
    Format                      : AC-3
    Format/Info                 : Audio Coding 3
    Format settings, Endianness : Big
    Codec ID                    : A_AC3
    Duration                    : 1 h 39 min
    Bit rate mode               : Constant
    Bit rate                    : 384 kb/s
    Channel(s)                  : 6 channels
    Channel positions           : Front: L C R, Side: L R, LFE
    Sampling rate               : 48.0 kHz
    Frame rate                  : 31.250 FPS (1536 spf)
    Bit depth                   : 16 bits
    Compression mode            : Lossy
    Stream size                 : 274 MiB (8%)
    Language                    : Spanish
    Service kind                : Complete Main
    Default                     : Yes
    Forced                      : No

    Text
    ID                          : 3
    Format                      : UTF-8
    Codec ID                    : S_TEXT/UTF8
    Codec ID/Info               : UTF-8 Plain Text
    Duration                    : 10 s 100 ms
    Bit rate                    : 91 b/s
    Count of elements           : 1
    Stream size                 : 115 Bytes (0%)
    Language                    : Spanish
    Default                     : Yes
    Forced                      : No

    Menu
    00:00:00.000                : en:Capítulo 1
    00:11:05.375                : en:Capítulo 2
    00:21:38.375                : en:Capítulo 3
    00:33:37.541                : en:Capítulo 4
    00:45:50.624                : en:Capítulo 5
    00:57:33.332                : en:Capítulo 6
    01:10:12.498                : en:Capítulo 7
    01:24:10.830                : en:Capítulo 8

  • Peso: 3.43 GB

Sinopsis

Descargar Peliculas Dolores WEBDL Latino, es una pelicula Argentina. Dolores cuenta la historia de una mujer escocesa que regresó a la Argentina después de la muerte de su hermana para cuidar el sobrino de ocho años, pero también atrajo el amor no terminó con su hermano Jack. En el contexto de la Segunda Guerra Mundial este amor crece, donde los ecos del conflicto cada vez más global y la guerra entre el alemán y el Inglés comienza a ser personal cuando Dolores comienza a seducir a un niño de alemán, Octavio Brand, que, lejos de ‘ser el enemigo, convertido inesperada para ella, que debe decidir entre el amor de dos hombres.

Ficha técnica

  • Titulo original: Dolores
  • Fecha de lanzamiento: 18-08-2016
  • Director: Juan Dickinson
  • Género: Sin categoría
  • Puntuación: 0.0 0 votos
  • Duración:
    1h 39m

Imágenes, Capturas de la película

Video trailer de la película

Enlaces de descarga

Descargar
Descargar Dolores (2016) WEBDL Latino

dpeliculas

Aportes de DPeliculasHDmega la pass es:dpeliculashdmega.org Aportes de CinemaniaHD la pass es:cinemaniahdd.com
Guardado en : Sin categoría

PelícuDelas relacionadas

  • Juego de Tronos (2016) Temporada 6 Full Latino

    2011/03/17
    Juego de Tronos (2016) Temporada 6 Full Latino

    0.0 60 Min. 2011/03/17

    Descargar gratis Juego de Tronos (2016) Temporada 6 Full Latino Sinopsis capitulo 1: Jon Nieve está...

    Director: David Benioff

    Género: Drama

    Actores: Sophie Turner

  • Shimmer Lake (2017) WEBDL Latino

    2017
    Shimmer Lake (2017) WEBDL Latino

    0.0 1h 26m 2017

    Descargar Shimmer Lake 1080p Latino una pelicula de Netflix,Un robo fallido a un banco, secretos de pueblo...

    Director: Oren Uziel

    Género: Sin categoría

    Actores: Wyatt Russell

Comentarios 0