Diré tu nombre (2016) 1080p Latino

1.121 vistas
1 estrella2 estrellas3 estrellas4 estrellas5 estrellas (1 votos, promedio: 5,00 de 5)
Cargando…

Información de Diré tu nombre (2016) 1080p Latino

Datos de la película

  • Calidad: 1080p
  • Audio: Español Latino AC3 2.0 iTUNES - Ingles AC3 5.1 BLURAY
  • Subtitulos: Español Latino SRT - Ingles SRT
  • Resolución: 1920x808p
  • Formato: MKV
  • Codec: H.264
  • Encoder: Dpelis
  • Mediainfo: Ver Ver
  • The Last Face (2016) 1080p Latino.mkv
    Format                      : Matroska
    Format version              : Version 4 / Version 2
    File size                   : 3.70 GiB
    Duration                    : 2 h 10 min
    Overall bit rate            : 4 055 kb/s
    Movie name                  : DPeliculasHDMega.ORG
    Encoded date                : UTC 2017-09-07 03:26:13 / UTC 2017-09-07T01:53:53Z
    Writing application         : mkvmerge v10.0.0 ('To Drown In You') 64bit
    Writing library             : libebml v1.3.4 + libmatroska v1.4.5 / Lavf57.7.2

    Video
    ID                          : 1
    Format                      : AVC
    Format/Info                 : Advanced Video Codec
    Format profile              : [email protected]
    Format settings, CABAC      : Yes
    Format settings, ReFrames   : 4 frames
    Codec ID                    : V_MPEG4/ISO/AVC
    Duration                    : 2 h 10 min
    Bit rate                    : 3 500 kb/s
    Width                       : 1 920 pixels
    Height                      : 808 pixels
    Display aspect ratio        : 2.40:1
    Frame rate mode             : Constant
    Frame rate                  : 23.976 (24000/1001) FPS
    Color space                 : YUV
    Chroma subsampling          : 4:2:0
    Bit depth                   : 8 bits
    Scan type                   : Progressive
    Bits/(Pixel*Frame)          : 0.094
    Stream size                 : 3.10 GiB (84%)
    Writing library             : x264 core 148 r2708 86b7198
    Encoding settings           : cabac=1 / ref=3 / deblock=1:0:0 / analyse=0x3:0x113 / me=hex / subme=7 / psy=1 / psy_rd=1.00:0.00 / mixed_ref=1 / me_range=16 / chroma_me=1 / trellis=1 / 8x8dct=1 / cqm=0 / deadzone=21,11 / fast_pskip=1 / chroma_qp_offset=-2 / threads=12 / lookahead_threads=2 / sliced_threads=0 / nr=0 / decimate=1 / interlaced=0 / bluray_compat=0 / constrained_intra=0 / bframes=3 / b_pyramid=2 / b_adapt=1 / b_bias=0 / direct=1 / weightb=1 / open_gop=0 / weightp=2 / keyint=240 / keyint_min=24 / scenecut=40 / intra_refresh=0 / rc_lookahead=40 / rc=abr / mbtree=1 / bitrate=3500 / ratetol=1.0 / qcomp=0.60 / qpmin=0 / qpmax=69 / qpstep=4 / vbv_maxrate=62500 / vbv_bufsize=78125 / nal_hrd=none / filler=0 / ip_ratio=1.40 / aq=1:1.00
    Default                     : Yes
    Forced                      : No
    Color range                 : Limited
    Color primaries             : BT.709
    Transfer characteristics    : BT.709
    Matrix coefficients         : BT.709
    Statistics Tags Issue       : mkvmerge v10.0.0 ('To Drown In You') 64bit 2017-09-07 03:26:13 / mkvmerge v10.0.0 ('To Drown In You') 64bit 2017-09-07 03:26:13 / UTC 2017-09-07T01:53:53Z
    FromStats_BitRate           : 3477354
    FromStats_Duration          : 02:10:38.664000000
    FromStats_FrameCount        : 187940
    FromStats_StreamSize        : 3407226567

    Audio #1
    ID                          : 2
    Format                      : AC-3
    Format/Info                 : Audio Coding 3
    Format settings, Endianness : Big
    Codec ID                    : A_AC3
    Duration                    : 2 h 10 min
    Bit rate mode               : Constant
    Bit rate                    : 192 kb/s
    Channel(s)                  : 2 channels
    Channel positions           : Front: L R
    Sampling rate               : 48.0 kHz
    Frame rate                  : 31.250 FPS (1536 spf)
    Bit depth                   : 16 bits
    Compression mode            : Lossy
    Delay relative to video     : -5 ms
    Stream size                 : 179 MiB (5%)
    Language                    : Spanish
    Service kind                : Complete Main
    Default                     : Yes
    Forced                      : No
    Statistics Tags Issue       : mkvmerge v10.0.0 ('To Drown In You') 64bit 2017-09-07 03:26:13 / mkvmerge v10.0.0 ('To Drown In You') 64bit 2017-09-07 03:26:13 / UTC 2017-09-07T01:53:53Z
    FromStats_BitRate           : 192000
    FromStats_Duration          : 02:10:33.280000000
    FromStats_FrameCount        : 244790
    FromStats_StreamSize        : 187998720

    Audio #2
    ID                          : 3
    Format                      : AC-3
    Format/Info                 : Audio Coding 3
    Format settings, Endianness : Big
    Codec ID                    : A_AC3
    Duration                    : 2 h 10 min
    Bit rate mode               : Constant
    Bit rate                    : 384 kb/s
    Channel(s)                  : 6 channels
    Channel positions           : Front: L C R, Side: L R, LFE
    Sampling rate               : 48.0 kHz
    Frame rate                  : 31.250 FPS (1536 spf)
    Bit depth                   : 16 bits
    Compression mode            : Lossy
    Delay relative to video     : -5 ms
    Stream size                 : 359 MiB (9%)
    Title                       : Surround
    Language                    : English
    Service kind                : Complete Main
    Default                     : No
    Forced                      : No
    Statistics Tags Issue       : mkvmerge v10.0.0 ('To Drown In You') 64bit 2017-09-07 03:26:13 / mkvmerge v10.0.0 ('To Drown In You') 64bit 2017-09-07 03:26:13 / UTC 2017-09-07T01:53:53Z
    FromStats_BitRate           : 384000
    FromStats_Duration          : 02:10:38.656000000
    FromStats_FrameCount        : 244958
    FromStats_StreamSize        : 376255488

    Text #1
    ID                          : 4
    Format                      : UTF-8
    Codec ID                    : S_TEXT/UTF8
    Codec ID/Info               : UTF-8 Plain Text
    Language                    : Spanish
    Default                     : No
    Forced                      : No
    Statistics Tags Issue       : mkvmerge v10.0.0 ('To Drown In You') 64bit 2017-09-07 03:26:13 / mkvmerge v10.0.0 ('To Drown In You') 64bit 2017-09-07 03:26:13 / UTC 2017-09-07T01:53:53Z
    FromStats_BitRate           : 39
    FromStats_Duration          : 02:09:56.441000000
    FromStats_FrameCount        : 1154
    FromStats_StreamSize        : 38593

    Text #2
    ID                          : 5
    Format                      : UTF-8
    Codec ID                    : S_TEXT/UTF8
    Codec ID/Info               : UTF-8 Plain Text
    Language                    : English
    Default                     : No
    Forced                      : No
    Statistics Tags Issue       : mkvmerge v10.0.0 ('To Drown In You') 64bit 2017-09-07 03:26:13 / mkvmerge v10.0.0 ('To Drown In You') 64bit 2017-09-07 03:26:13 / UTC 2017-09-07T01:53:53Z
    FromStats_BitRate           : 48
    FromStats_Duration          : 02:09:27.927000000
    FromStats_FrameCount        : 1593
    FromStats_StreamSize        : 47349

    Text #3
    ID                          : 6
    Format                      : UTF-8
    Codec ID                    : S_TEXT/UTF8
    Codec ID/Info               : UTF-8 Plain Text
    Language                    : Spanish
    Default                     : Yes
    Forced                      : No
    Statistics Tags Issue       : mkvmerge v10.0.0 ('To Drown In You') 64bit 2017-09-07 03:26:13 / mkvmerge v10.0.0 ('To Drown In You') 64bit 2017-09-07 03:26:13 / UTC 2017-09-07T01:53:53Z
    FromStats_BitRate           : 28
    FromStats_Duration          : 00:00:20.100000000
    FromStats_FrameCount        : 1
    FromStats_StreamSize        : 71

    Menu
    00:00:00.000                : :00:00:00.000
    00:06:40.150                : :00:06:40.150
    00:13:31.102                : :00:13:31.102
    00:19:53.818                : :00:19:53.692
    00:28:13.567                : :00:28:13.483
    00:35:24.956                : :00:35:24.873
    00:42:03.187                : :00:42:03.187
    00:47:49.492                : :00:47:49.450
    00:56:06.280                : :00:56:06.238
    01:02:06.264                : :01:02:06.264
    01:07:00.517                : :01:07:00.516
    01:15:15.177                : :01:15:15.052
    01:20:06.719                : :01:20:06.719
    01:27:02.968                : :01:27:02.926
    01:33:36.569                : :01:33:36.569
    01:40:29.607                : :01:40:29.607
    01:47:09.006                : :01:47:08.881
    01:55:14.408                : :01:55:14.324
    01:59:20.445                : :01:59:20.403
    02:06:04.557                : :02:06:04.515

  • Peso: 3.70 GB

Sinopsis

Durante una misión de rescate, Wren (Charlize Theron), directora de una organización de ayuda humanitaria conoce a Miguel (Javier Bardem), un apasionado médico que ha dedicado su vida a trabajar en los países más peligrosos del continente africano. Wren y Miguel se enamoran e inician una relación en medio de la barbarie que los rodea. Pero ambos tienen caracteres muy fuertes y puntos de vista totalmente opuestos sobre cómo enfocar los conflictos que les rodean.

Ficha técnica

  • Titulo original: The Last Face
  • Fecha de lanzamiento: 20-05-2016 (United States of America)
  • Director: Sean Penn
  • Género: Drama
  • Puntuación: 5.0 1 votos
  • Duración:
    2h 11m

Imágenes, Capturas de la película

Video trailer de la película

Enlaces de descarga

Descargar Diré tu nombre (2016) 1080p Latino
Descargar

dpeliculas

Aportes de DPeliculasHDmega la pass es:dpeliculashdmega.org Aportes de CinemaniaHD la pass es:cinemaniahdd.com
Guardado en : Drama

PelícuDelas relacionadas

Comentarios 0