Día Del Atentado (2016) FULL 1080p x265 Latino

1.168 vistas
1 estrella2 estrellas3 estrellas4 estrellas5 estrellas (1 votos, promedio: 5,00 de 5)
Cargando…

Información de Día Del Atentado (2016) FULL 1080p x265 Latino

Datos de la película

  • Calidad: Full 1080p
  • Audio: Español Latino AC3 5.1 BLURAY - Ingles DTS 5.1 BLURAY
  • Subtitulos: Español Latino PGS
  • Resolución: 1920x1080p
  • Formato: MKV
  • Codec: H.265
  • Encoder:
  • Mediainfo: Ver Ver
  • Día Del Atentado (2016) 1080p BluRay x265 HEVC DTS Dual Latino.mkv
    Format                      : Matroska
    Format version              : Version 4 / Version 2
    File size                   : 4.80 GiB
    Duration                    : 2h 13mn
    Overall bit rate            : 5 161 Kbps
    Encoded date                : UTC 2017-04-15 04:42:12
    Writing application         : mkvmerge v8.6.1 ('Flying') 64bit
    Writing library             : libebml v1.3.3 + libmatroska v1.4.4
    DURATION                    : 02:12:41.996000000
    NUMBER_OF_FRAMES            : 3684
    NUMBER_OF_BYTES             : 38324345
    _STATISTICS_WRITING_APP     : mkvmerge v8.6.1 ('Flying') 64bit
    _STATISTICS_WRITING_DATE_UT : 2017-04-15 04:42:12
    _STATISTICS_TAGS            : BPS DURATION NUMBER_OF_FRAMES NUMBER_OF_BYTES

    Video
    ID                          : 1
    Format                      : HEVC
    Format/Info                 : High Efficiency Video Coding
    Format profile              : [email protected]@Main
    Codec ID                    : V_MPEGH/ISO/HEVC
    Duration                    : 2h 13mn
    Bit rate                    : 2 909 Kbps
    Width                       : 1 920 pixels
    Height                      : 1 080 pixels
    Display aspect ratio        : 16:9
    Frame rate mode             : Constant
    Frame rate                  : 23.976 fps
    Color space                 : YUV
    Chroma subsampling          : 4:2:0
    Bit depth                   : 8 bits
    Bits/(Pixel*Frame)          : 0.059
    Stream size                 : 2.71 GiB (56%)
    Writing library             : x265 2.1:[Windows][GCC 5.4.0][64 bit] 8bit
    Encoding settings           : wpp / ctu=64 / min-cu-size=8 / max-tu-size=32 / tu-intra-depth=1 / tu-inter-depth=1 / me=3 / subme=3 / merange=57 / rect / no-amp / max-merge=3 / temporal-mvp / no-early-skip / rskip / rdpenalty=0 / no-tskip / no-tskip-fast / strong-intra-smoothing / no-lossless / no-cu-lossless / no-constrained-intra / no-fast-intra / open-gop / no-temporal-layers / interlace=0 / keyint=240 / min-keyint=24 / scenecut=40 / rc-lookahead=25 / lookahead-slices=4 / bframes=4 / bframe-bias=0 / b-adapt=2 / ref=4 / limit-refs=3 / limit-modes / weightp / no-weightb / aq-mode=1 / qg-size=32 / aq-strength=1.00 / cbqpoffs=0 / crqpoffs=0 / rd=4 / psy-rd=2.00 / rdoq-level=2 / psy-rdoq=1.00 / log2-max-poc-lsb=8 / no-rd-refine / signhide / deblock=0:0 / sao / no-sao-non-deblock / b-pyramid / cutree / no-intra-refresh / rc=crf / crf=20.0 / qcomp=0.60 / qpmin=0 / qpmax=69 / qpstep=4 / ipratio=1.40 / pbratio=1.30
    Default                     : Yes
    Forced                      : No
    Color range                 : Limited
    Color primaries             : BT.709
    Transfer characteristics    : BT.709
    Matrix coefficients         : BT.709
    DURATION                    : 02:13:09.023000000
    NUMBER_OF_FRAMES            : 191545
    NUMBER_OF_BYTES             : 2965149679
    _STATISTICS_WRITING_APP     : mkvmerge v8.6.1 ('Flying') 64bit
    _STATISTICS_WRITING_DATE_UT : 2017-04-15 04:42:12
    _STATISTICS_TAGS            : BPS DURATION NUMBER_OF_FRAMES NUMBER_OF_BYTES

    Audio #1
    ID                          : 2
    Format                      : AC-3
    Format/Info                 : Audio Coding 3
    Mode extension              : CM (complete main)
    Format settings, Endianness : Big
    Codec ID                    : A_AC3
    Duration                    : 2h 13mn
    Bit rate mode               : Constant
    Bit rate                    : 640 Kbps
    Channel(s)                  : 6 channels
    Channel positions           : Front: L C R, Side: L R, LFE
    Sampling rate               : 48.0 KHz
    Compression mode            : Lossy
    Stream size                 : 610 MiB (12%)
    Title                       : Español Latino AC3 5.1 [640 Kbps]
    Language                    : Spanish
    Default                     : Yes
    Forced                      : No

    Audio #2
    ID                          : 3
    Format                      : DTS
    Format/Info                 : Digital Theater Systems
    Mode                        : 16
    Format settings, Endianness : Big
    Codec ID                    : A_DTS
    Duration                    : 2h 13mn
    Bit rate mode               : Constant
    Bit rate                    : 1 509 Kbps
    Channel(s)                  : 6 channels
    Channel positions           : Front: L C R, Side: L R, LFE
    Sampling rate               : 48.0 KHz
    Bit depth                   : 24 bits
    Compression mode            : Lossy
    Stream size                 : 1.40 GiB (29%)
    Title                       : Inglés DTS 5.1 [1509 Kbps]
    Language                    : English
    Default                     : No
    Forced                      : No

    Text #1
    ID                          : 4
    Format                      : PGS
    Codec ID                    : S_HDMV/PGS
    Codec ID/Info               : Picture based subtitle format used on BDs/HD-DVDs
    Title                       : Subtítulos Español Latino - Forzados [PGS]
    Language                    : Spanish
    Default                     : No
    Forced                      : Yes

    Text #2
    ID                          : 5
    Format                      : PGS
    Codec ID                    : S_HDMV/PGS
    Codec ID/Info               : Picture based subtitle format used on BDs/HD-DVDs
    Title                       : Subtítulos Español Latino [PGS]
    Language                    : Spanish
    Default                     : No
    Forced                      : No

    Menu
    00:00:00.000                : :Chapter 1
    00:08:30.510                : :Chapter 2
    00:17:48.067                : :Chapter 3
    00:24:56.328                : :Chapter 4
    00:32:35.954                : :Chapter 5
    00:41:44.502                : :Chapter 6
    00:49:23.002                : :Chapter 7
    00:58:35.512                : :Chapter 8
    01:07:10.026                : :Chapter 9
    01:19:05.157                : :Chapter 10
    01:24:20.055                : :Chapter 11
    01:33:48.623                : :Chapter 12
    01:45:17.311                : :Chapter 13
    01:50:24.618                : :Chapter 14
    01:57:57.070                : :Chapter 15
    02:05:25.518                : :Chapter 16

  • Peso: 4.80 GB

Sinopsis

Basada en el atentado de la maratón de Bostón, Patriot’s Day cuenta la historia del oficial de policía Ed Davis, que investiga los acontecimientos que se saldaron con la muerte de un terrorista y la detención de otro, ofreciendo una exhaustiva narración de la persecución que se llevó a cabo por toda la ciudad para dar caza a los causantes del atentado.

Ficha técnica

Imágenes, Capturas de la película

Video trailer de la película

Enlaces de descarga

Descargar
Descargar Día Del Atentado (2016) FULL 1080p x265 Latino

dpeliculas

Aportes de DPeliculasHDmega la pass es:dpeliculashdmega.org Aportes de CinemaniaHD la pass es:cinemaniahdd.com
Guardado en : 1080p x265 HEVC , Drama , Historia , Suspense

PelícuDelas relacionadas

  • The Resurrection of Gavin Stone (2017) 1080p Latino

    2017
    The Resurrection of Gavin Stone (2017) 1080p Latino

    0.0 1 h 31 min 2017

    Una antigua estrella infantil se ve obligada a prestar un servicio comunitario en una gran iglesia de...

    Director: Dallas Jenkins

    Género: Comedia

    Actores: Tim Frank

  • Mariposa negra (2017) 1080p Latino

    2017
    Mariposa negra (2017) 1080p Latino

    0.0 1h 33m 2017

    Paul (Antonio Banderas) es un escritor en horas bajas que un día recoge a un vagabundo (Jonathan Rhys...

    Director: Valentina de Cassan

    Género: Suspense

    Actores: Vincent Riotta

  • Secuestrado (2017) 1080p Latino

    2017
    Secuestrado (2017) 1080p Latino

    0.0 1h 34m 2017

    Una madre no se detendrá ante nada para intentar recuperar a su hijo cuando este es secuestrado delante...

    Director: Nicole Garcea

    Género: Drama

    Actores: Timothy Fannon

  • The Phenom (2016) 1080p Latino

    2016
    The Phenom (2016) 1080p Latino

    0.0 1 h 27 min 2016

    Noah Buschel (Glass Chin) escribe y dirige este drama deportivo sobre un joven atleta tan torturado por...

    Director: Noah Buschel

    Género: Drama

    Actores: Yul Vazquez

Comentarios 3
  • itofeddy - 22 abril, 2017

    Que sigan los aportes en H.265, son lo mejor!!

  • Zedahooin - 17 abril, 2017

    Muchas gracias por subir más contenido en hevc, últimamente no se encuentran en muchas partes, Ojalá puedan seguir expandiendo el catálogo 😀

  • gaston - 16 abril, 2017

    bien volieron las x265 hevc gracias sigan asi.