Advertise here

Destino oculto (2011) Full 1080p Latino

638 vistas
1 estrella2 estrellas3 estrellas4 estrellas5 estrellas (Ninguna valoración todavía)
Cargando…

Información de Destino oculto (2011) Full 1080p Latino

Datos de la película

  • Calidad: Full 1080p
  • Audio: Español Latino AC3 5.1 DVD - Ingles DTS 5.1 BLURAY
  • Subtitulos: Español Latino PGS - Ingles PGS
  • Resolución: 1920X1080p
  • Formato: MKV
  • Codec: H.264
  • Encoder: Dpelis
  • Mediainfo: Clic para Mostrar Datos Ver
  • Format                                   : Matroska
    Format version                           : Version 4 / Version 2
    File size                                : 6.25 GiB
    Duration                                 : 1 h 45 min
    Overall bit rate                         : 8 460 kb/s
    Movie name                               : dpeliculashdmega.org
    Encoded date                             : UTC 2017-11-13 01:56:23 / UTC 2017-11-09T07:15:59Z
    Writing application                      : mkvmerge v15.0.0 ('Duel with the Devil') 64-bit
    Writing library                          : libebml v1.3.5 + libmatroska v1.4.5 / Lavf57.7.2

    Video
    ID                                       : 1
    Format                                   : AVC
    Format/Info                              : Advanced Video Codec
    Format profile                           : [email protected]
    Format settings                          : CABAC / 4 Ref Frames
    Format settings, CABAC                   : Yes
    Format settings, RefFrames               : 4 frames
    Codec ID                                 : V_MPEG4/ISO/AVC
    Duration                                 : 1 h 45 min
    Bit rate                                 : 6 399 kb/s
    Width                                    : 1 920 pixels
    Height                                   : 1 080 pixels
    Display aspect ratio                     : 16:9
    Frame rate mode                          : Constant
    Frame rate                               : 23.976 (24000/1001) FPS
    Color space                              : YUV
    Chroma subsampling                       : 4:2:0
    Bit depth                                : 8 bits
    Scan type                                : Progressive
    Bits/(Pixel*Frame)                       : 0.129
    Stream size                              : 4.73 GiB (76%)
    Title                                    : Destino oculto (2011) Full 1080p Latino
    Writing library                          : x264 core 148 r2708 86b7198
    Encoding settings                        : cabac=1 / ref=4 / deblock=1:0:0 / analyse=0x3:0x133 / me=esa / subme=10 / psy=1 / psy_rd=1.00:0.00 / mixed_ref=1 / me_range=24 / chroma_me=1 / trellis=2 / 8x8dct=1 / cqm=0 / deadzone=21,11 / fast_pskip=1 / chroma_qp_offset=-2 / threads=34 / lookahead_threads=5 / sliced_threads=0 / nr=0 / decimate=1 / interlaced=0 / bluray_compat=0 / constrained_intra=0 / bframes=8 / b_pyramid=2 / b_adapt=2 / b_bias=0 / direct=3 / weightb=1 / open_gop=0 / weightp=2 / keyint=240 / keyint_min=24 / scenecut=40 / intra_refresh=0 / rc_lookahead=60 / rc=crf / mbtree=1 / crf=20.0 / qcomp=0.60 / qpmin=0 / qpmax=69 / qpstep=4 / vbv_maxrate=62500 / vbv_bufsize=78125 / crf_max=0.0 / nal_hrd=none / filler=0 / ip_ratio=1.40 / aq=1:1.00
    Language                                 : English
    Default                                  : Yes
    Forced                                   : No
    Color range                              : Limited
    Color primaries                          : BT.709
    Transfer characteristics                 : BT.709
    Matrix coefficients                      : BT.709
    Statistics Tags Issue                    : mkvmerge v15.0.0 ('Duel with the Devil') 64-bit 2017-11-13 01:56:23 / mkvmerge v15.0.0 ('Duel with the Devil') 64-bit 2017-11-13 01:56:23 / UTC 2017-11-09T07:15:59Z
    FromStats_BitRate                        : 6548156
    FromStats_Duration                       : 01:45:45.006000000
    FromStats_FrameCount                     : 152128
    FromStats_StreamSize                     : 5193511252

    Audio #1
    ID                                       : 2
    Format                                   : AC-3
    Format/Info                              : Audio Coding 3
    Format settings, Endianness              : Big
    Codec ID                                 : A_AC3
    Duration                                 : 1 h 45 min
    Bit rate mode                            : Constant
    Bit rate                                 : 384 kb/s
    Channel(s)                               : 6 channels
    Channel positions                        : Front: L C R, Side: L R, LFE
    Sampling rate                            : 48.0 kHz
    Frame rate                               : 31.250 FPS (1536 SPF)
    Bit depth                                : 16 bits
    Compression mode                         : Lossy
    Stream size                              : 291 MiB (5%)
    Title                                    : Latino-AC3
    Language                                 : Spanish
    Service kind                             : Complete Main
    Default                                  : Yes
    Forced                                   : No
    Statistics Tags Issue                    : mkvmerge v15.0.0 ('Duel with the Devil') 64-bit 2017-11-13 01:56:23 / mkvmerge v15.0.0 ('Duel with the Devil') 64-bit 2017-11-13 01:56:23 / UTC 2017-11-09T07:15:59Z
    FromStats_BitRate                        : 384000
    FromStats_Duration                       : 01:45:50.272000000
    FromStats_FrameCount                     : 198446
    FromStats_StreamSize                     : 304813056

    Audio #2
    ID                                       : 3
    Format                                   : DTS
    Format/Info                              : Digital Theater Systems
    Mode                                     : 16
    Format settings, Endianness              : Big
    Codec ID                                 : A_DTS
    Duration                                 : 1 h 45 min
    Bit rate mode                            : Constant
    Bit rate                                 : 1 509 kb/s
    Channel(s)                               : 6 channels
    Channel positions                        : Front: L C R, Side: L R, LFE
    Sampling rate                            : 48.0 kHz
    Frame rate                               : 93.750 FPS (512 SPF)
    Bit depth                                : 24 bits
    Compression mode                         : Lossy
    Stream size                              : 1.12 GiB (18%)
    Title                                    : Ingles-DTS
    Language                                 : English
    Default                                  : No
    Forced                                   : No
    Statistics Tags Issue                    : mkvmerge v15.0.0 ('Duel with the Devil') 64-bit 2017-11-13 01:56:23 / mkvmerge v15.0.0 ('Duel with the Devil') 64-bit 2017-11-13 01:56:23 / UTC 2017-11-09T07:15:59Z
    FromStats_BitRate                        : 1508999
    FromStats_Duration                       : 01:45:45.014000000
    FromStats_FrameCount                     : 594845
    FromStats_StreamSize                     : 1196828140

    Text #1
    ID                                       : 4
    Format                                   : PGS
    Muxing mode                              : zlib
    Codec ID                                 : S_HDMV/PGS
    Codec ID/Info                            : Picture based subtitle format used on BDs/HD-DVDs
    Language                                 : English
    Default                                  : No
    Forced                                   : No
    Statistics Tags Issue                    : mkvmerge v15.0.0 ('Duel with the Devil') 64-bit 2017-11-13 01:56:23 / mkvmerge v15.0.0 ('Duel with the Devil') 64-bit 2017-11-13 01:56:23 / UTC 2017-11-09T07:15:59Z
    FromStats_BitRate                        : 46485
    FromStats_Duration                       : 01:38:00.958000000
    FromStats_FrameCount                     : 2984
    FromStats_StreamSize                     : 34172486

    Text #2
    ID                                       : 5
    Format                                   : PGS
    Muxing mode                              : zlib
    Codec ID                                 : S_HDMV/PGS
    Codec ID/Info                            : Picture based subtitle format used on BDs/HD-DVDs
    Language                                 : Spanish
    Default                                  : No
    Forced                                   : No
    Statistics Tags Issue                    : mkvmerge v15.0.0 ('Duel with the Devil') 64-bit 2017-11-13 01:56:23 / mkvmerge v15.0.0 ('Duel with the Devil') 64-bit 2017-11-13 01:56:23 / UTC 2017-11-09T07:15:59Z
    FromStats_BitRate                        : 36488
    FromStats_Duration                       : 01:39:34.176000000
    FromStats_FrameCount                     : 2917
    FromStats_StreamSize                     : 27248560

    Menu
    00:00:00.000                             : :01.  Chapter 1
    00:06:37.856                             : :02.  Chapter 2
    00:14:17.482                             : :03.  Chapter 3
    00:20:58.299                             : :04.  Chapter 4
    00:28:35.631                             : :05.  Chapter 5
    00:31:11.495                             : :06.  Chapter 6
    00:35:22.329                             : :07.  Chapter 7
    00:38:58.920                             : :08.  Chapter 8
    00:43:07.085                             : :09.  Chapter 9
    00:51:35.134                             : :10.  Chapter 10
    00:58:33.093                             : :11.  Chapter 11
    01:02:15.065                             : :12.  Chapter 12
    01:07:32.090                             : :13.  Chapter 13
    01:12:00.650                             : :14.  Chapter 14
    01:14:13.491                             : :15.  Chapter 15
    01:19:47.658                             : :16.  Chapter 16
    01:24:11.630                             : :17.  Chapter 17
    01:30:00.687                             : :18.  Chapter 18
    01:35:53.748                             : :19.  Chapter 19
    01:38:54.554                             : :20.  Closing Credits

  • Peso: 6.25 GiB

Sinopsis

¿Controlamos nuestro destino o fuerzas invisibles nos manipulan? David Norris (Matt Damon)es un hombre quien ve el futuro como algo ya planeado para él y se da cuenta que quiere algo más. Para conseguirlo, debe perseguir a la única mujer de la que se ha enamorado por las calles de Nueva York. Apunto de recibir un puesto en el senado de los Estados Unidos, David conoce a Elise Sellas (Emily Blunt) una bella bailarina de ballet contemporaneo. Mientras se da cuenta que se está enamorando de ella, unos hombres misteriosos que se hacen llamar “Agentes del destino” aparecen en la escena para tratar de mantenerlos separados. David deberá hacer todo lo posible por estar con ella y renunciar a el futuro que el destino tenía ya planeado para él.

Ficha técnica

Video trailer de la película

Enlaces de descarga

Descargar Destino oculto (2011) Full 1080p Latino
Descargar

dpeliculas

Aportes de DPeliculasHDmega la pass es:dpeliculashdmega.org Aportes de CinemaniaHD la pass es:cinemaniahdd.com

Películas relacionadas

  • Toy Story 3 (2010) Full 1080p Latino

    2010
    Toy Story 3 (2010) Full 1080p Latino

    0.0 1 h 43 min 2010

    Sabiendo que su dueño Andy, que ya no es un niño, se prepara para ir a la universidad, el vaquero Woody,...

    Director: Mark Sanford

    Género: Animación

    Actores: Whoopi Goldberg

  • Toy Story (1995) Full 1080p Latino

    1995
    Toy Story (1995) Full 1080p Latino

    0.0 1 h 21 min 1995

    Los juguetes de Andy, un niño de 6 años, temen que haya llegado su hora y que un nuevo regalo de cumpleaños...

    Director: Roman Figun

    Género: Animación

    Actores: Wallace Shawn

  • Avatar (2009) EXTENDED Full 1080p Latino

    2009
    Avatar (2009) EXTENDED Full 1080p Latino

    0.0 2 h 58 min 2009

    Jake Sully, un ex-marine confinado a una silla de ruedas, es reclutado para viajar al planeta Pandora,...

    Director: James Cameron

    Género: Acción

    Actores: Zoe Saldana

Comentarios 4
  • leonidas2016 - 14 noviembre, 2017

    Exelente pelicula y en full gracias chicos

  • Jonna - 13 noviembre, 2017

    Muchas gracias por esta peli, es muy buena! Q recuerdos 🙂

    • Dpelis2 pelis2

      Autor
      - 13 noviembre, 2017

      De nada amigo. Salduos

  • Ever Enrique - 13 noviembre, 2017

    ¡Vaya gracias por esta película es difícil de conseguir en excelente calidad! Ustedes son los mejores…Gracias…