Advertise here

Destino final 4 (2009) Full 1080p Latino

270 vistas
1 estrella2 estrellas3 estrellas4 estrellas5 estrellas (Ninguna valoración todavía)
Cargando…

Información de Destino final 4 (2009) Full 1080p Latino

Datos de la película

  • Calidad: Full 1080p
  • Audio: Español Latino AC3 5.1 BLURAY - Ingles DTS 5.1 BLURAY
  • Subtitulos: Español Latino PGS - Ingles PGS
  • Resolución: 1920X1080
  • Formato: MKV
  • Codec: H.264
  • Encoder: Dpelis
  • Mediainfo: Clic para Mostrar Datos Ver
  • Format                                   : Matroska
    Format version                           : Version 4 / Version 2
    File size                                : 4.96 GiB
    Duration                                 : 1 h 21 min
    Overall bit rate                         : 8 682 kb/s
    Movie name                               : dpeliculashdmega.org
    Encoded date                             : UTC 2017-11-13 03:38:00 / UTC 2017-11-12T02:13:04Z
    Writing application                      : mkvmerge v15.0.0 ('Duel with the Devil') 64-bit
    Writing library                          : libebml v1.3.5 + libmatroska v1.4.5 / Lavf57.7.2

    Video
    ID                                       : 1
    Format                                   : AVC
    Format/Info                              : Advanced Video Codec
    Format profile                           : [email protected]
    Format settings                          : CABAC / 4 Ref Frames
    Format settings, CABAC                   : Yes
    Format settings, RefFrames               : 4 frames
    Codec ID                                 : V_MPEG4/ISO/AVC
    Duration                                 : 1 h 21 min
    Bit rate                                 : 6 360 kb/s
    Width                                    : 1 920 pixels
    Height                                   : 1 080 pixels
    Display aspect ratio                     : 16:9
    Frame rate mode                          : Constant
    Frame rate                               : 23.976 (24000/1001) FPS
    Color space                              : YUV
    Chroma subsampling                       : 4:2:0
    Bit depth                                : 8 bits
    Scan type                                : Progressive
    Bits/(Pixel*Frame)                       : 0.128
    Stream size                              : 3.64 GiB (73%)
    Title                                    : Destino final 4 (2009) Full 1080p Latino
    Writing library                          : x264 core 148 r2708 86b7198
    Encoding settings                        : cabac=1 / ref=4 / deblock=1:0:0 / analyse=0x3:0x133 / me=esa / subme=10 / psy=1 / psy_rd=1.00:0.00 / mixed_ref=1 / me_range=24 / chroma_me=1 / trellis=2 / 8x8dct=1 / cqm=0 / deadzone=21,11 / fast_pskip=1 / chroma_qp_offset=-2 / threads=34 / lookahead_threads=5 / sliced_threads=0 / nr=0 / decimate=1 / interlaced=0 / bluray_compat=0 / constrained_intra=0 / bframes=8 / b_pyramid=2 / b_adapt=2 / b_bias=0 / direct=3 / weightb=1 / open_gop=0 / weightp=2 / keyint=240 / keyint_min=24 / scenecut=40 / intra_refresh=0 / rc_lookahead=60 / rc=crf / mbtree=1 / crf=20.0 / qcomp=0.60 / qpmin=0 / qpmax=69 / qpstep=4 / vbv_maxrate=62500 / vbv_bufsize=78125 / crf_max=0.0 / nal_hrd=none / filler=0 / ip_ratio=1.40 / aq=1:1.00
    Language                                 : English
    Default                                  : Yes
    Forced                                   : No
    Color range                              : Limited
    Color primaries                          : BT.709
    Transfer characteristics                 : BT.709
    Matrix coefficients                      : BT.709
    Statistics Tags Issue                    : mkvmerge v15.0.0 ('Duel with the Devil') 64-bit 2017-11-13 03:38:00 / mkvmerge v15.0.0 ('Duel with the Devil') 64-bit 2017-11-13 03:38:00 / UTC 2017-11-12T02:13:04Z
    FromStats_BitRate                        : 6512719
    FromStats_Duration                       : 01:21:46.986000000
    FromStats_FrameCount                     : 117650
    FromStats_StreamSize                     : 3994727887

    Audio #1
    ID                                       : 2
    Format                                   : AC-3
    Format/Info                              : Audio Coding 3
    Format settings, Endianness              : Big
    Codec ID                                 : A_AC3
    Duration                                 : 1 h 21 min
    Bit rate mode                            : Constant
    Bit rate                                 : 640 kb/s
    Channel(s)                               : 6 channels
    Channel positions                        : Front: L C R, Side: L R, LFE
    Sampling rate                            : 48.0 kHz
    Frame rate                               : 31.250 FPS (1536 SPF)
    Bit depth                                : 16 bits
    Compression mode                         : Lossy
    Stream size                              : 375 MiB (7%)
    Title                                    : Latino-AC3
    Language                                 : Spanish
    Service kind                             : Complete Main
    Default                                  : Yes
    Forced                                   : No
    Statistics Tags Issue                    : mkvmerge v15.0.0 ('Duel with the Devil') 64-bit 2017-11-13 03:38:00 / mkvmerge v15.0.0 ('Duel with the Devil') 64-bit 2017-11-13 03:38:00 / UTC 2017-11-12T02:13:04Z
    FromStats_BitRate                        : 640000
    FromStats_Duration                       : 01:21:49.920000000
    FromStats_FrameCount                     : 153435
    FromStats_StreamSize                     : 392793600

    Audio #2
    ID                                       : 3
    Format                                   : DTS
    Format/Info                              : Digital Theater Systems
    Mode                                     : 16
    Format settings, Endianness              : Big
    Codec ID                                 : A_DTS
    Duration                                 : 1 h 21 min
    Bit rate mode                            : Constant
    Bit rate                                 : 1 509 kb/s
    Channel(s)                               : 6 channels
    Channel positions                        : Front: L C R, Side: L R, LFE
    Sampling rate                            : 48.0 kHz
    Frame rate                               : 93.750 FPS (512 SPF)
    Bit depth                                : 24 bits
    Compression mode                         : Lossy
    Stream size                              : 883 MiB (17%)
    Title                                    : Ingles-DTS
    Language                                 : English
    Default                                  : No
    Forced                                   : No
    Statistics Tags Issue                    : mkvmerge v15.0.0 ('Duel with the Devil') 64-bit 2017-11-13 03:38:00 / mkvmerge v15.0.0 ('Duel with the Devil') 64-bit 2017-11-13 03:38:00 / UTC 2017-11-12T02:13:04Z
    FromStats_BitRate                        : 1508999
    FromStats_Duration                       : 01:21:49.931000000
    FromStats_FrameCount                     : 460306
    FromStats_StreamSize                     : 926135672

    Text #1
    ID                                       : 4
    Format                                   : PGS
    Muxing mode                              : zlib
    Codec ID                                 : S_HDMV/PGS
    Codec ID/Info                            : Picture based subtitle format used on BDs/HD-DVDs
    Title                                    : PGS-Forzados
    Language                                 : Spanish
    Default                                  : Yes
    Forced                                   : No
    Statistics Tags Issue                    : mkvmerge v15.0.0 ('Duel with the Devil') 64-bit 2017-11-13 03:38:00 / mkvmerge v15.0.0 ('Duel with the Devil') 64-bit 2017-11-13 03:38:00 / UTC 2017-11-12T02:13:04Z
    FromStats_BitRate                        : 1031
    FromStats_Duration                       : 01:21:04.985000000
    FromStats_FrameCount                     : 78
    FromStats_StreamSize                     : 627323

    Text #2
    ID                                       : 5
    Format                                   : PGS
    Muxing mode                              : zlib
    Codec ID                                 : S_HDMV/PGS
    Codec ID/Info                            : Picture based subtitle format used on BDs/HD-DVDs
    Title                                    : PGS
    Language                                 : Spanish
    Default                                  : No
    Forced                                   : No
    Statistics Tags Issue                    : mkvmerge v15.0.0 ('Duel with the Devil') 64-bit 2017-11-13 03:38:00 / mkvmerge v15.0.0 ('Duel with the Devil') 64-bit 2017-11-13 03:38:00 / UTC 2017-11-12T02:13:04Z
    FromStats_BitRate                        : 22244
    FromStats_Duration                       : 01:21:04.985000000
    FromStats_FrameCount                     : 1596
    FromStats_StreamSize                     : 13527232

    Text #3
    ID                                       : 6
    Format                                   : PGS
    Muxing mode                              : zlib
    Codec ID                                 : S_HDMV/PGS
    Codec ID/Info                            : Picture based subtitle format used on BDs/HD-DVDs
    Title                                    : PGS
    Language                                 : English
    Default                                  : No
    Forced                                   : No
    Statistics Tags Issue                    : mkvmerge v15.0.0 ('Duel with the Devil') 64-bit 2017-11-13 03:38:00 / mkvmerge v15.0.0 ('Duel with the Devil') 64-bit 2017-11-13 03:38:00 / UTC 2017-11-12T02:13:04Z
    FromStats_BitRate                        : 22367
    FromStats_Duration                       : 01:21:04.985000000
    FromStats_FrameCount                     : 1596
    FromStats_StreamSize                     : 13601898

    Menu
    00:00:00.000                             : :Speedway Day
    00:04:00.323                             : :Sinister Signs
    00:06:42.193                             : :Car Carnage
    00:11:29.230                             : :Credits
    00:12:57.652                             : :Your Time's Comin'
    00:17:40.351                             : :His Own Victim
    00:21:32.833                             : :Something In The Room
    00:23:36.123                             : :Salon So Late
    00:27:00.494                             : :Eye Contact
    00:29:12.417                             : :Would It Kill You?
    00:32:49.176                             : :Next To Die
    00:35:44.684                             : :Not My Turn
    00:39:15.019                             : :Wet Threats
    00:43:37.240                             : :Awash At The Wash
    00:47:01.068                             : :Down The Drain
    00:50:05.085                             : :Breaking The Chain
    00:55:22.486                             : :Overflow Below
    00:59:46.291                             : :Déjà V
    01:01:22.888                             : :At The Movies
    01:05:41.688                             : :Bye Bye Suckers
    01:08:18.136                             : :Deescalated
    01:09:55.983                             : :Damper On Death
    01:13:34.118                             : :Death By Caffeine
    01:16:35.049                             : :End Credits

  • Peso: 4.96 GiB

Sinopsis

Nick O’Bannon y unos amigos acuden a un circuito de carreras para presenciar una prueba del Nascar. Durante ésta tiene lugar un terrible accidente que conlleva desastrosas consecuencias para el estadio. Pero Nick descubre que se trata de sólo una visión de algo que está a punto de suceder, y junto con otras doce personas consigue salir del recinto y escapar de una tragedia segura. Pensando que han burlado a la muerte, el grupo continúa con su vida, pero desafortunadamente para Nick, Lori y sus amigos sólo es el principio, ya que la muerte no deja cabos sueltos, y regresará para llevarse a los supervivientes de una manera brutal.

Ficha técnica

Video trailer de la película

Enlaces de descarga

Descargar Destino final 4 (2009) Full 1080p Latino
Descargar

dpeliculas

Aportes de DPeliculasHDmega la pass es:dpeliculashdmega.org Aportes de CinemaniaHD la pass es:cinemaniahdd.com

Películas relacionadas

  • Open Water 3 (2017) 1080p Latino

    2017
    Open Water 3 (2017) 1080p Latino

    0.0 1 h 20 min 2017

    Tres amigos viajan a Australia con la intención de grabar un vídeo buceando entre tiburones, que les...

    Director: Gerald Rascionato

    Género: Drama

    Actores: Tara Wraith

  • El vagón de la muerte (2008) UNRATED Full 1080p Latino

    2008
    El vagón de la muerte (2008) UNRATED Full 1080p Latino

    0.0 1 h 42 min 2008

    La dueña de una exitosa galería de arte le propone al fotógrafo Leon Kauffman llevar a cabo un trabajo...

    Director: Ryûhei Kitamura

    Género: Crimen

    Actores: Vinnie Jones

  • The Bourne Ultimátum (2007) Full 1080p Latino

    2007
    The Bourne Ultimátum (2007) Full 1080p Latino

    5.0 1 h 55 min 2007

    Jason Bourne sigue investigando quién es y qué hay realmente detrás del programa secreto de la CIA...

    Director: Sue Mahoney

    Género: Acción

    Actores: William H. Burns

  • The Bourne Supremacy (2004) Full 1080p Latino

    2004
    The Bourne Supremacy (2004) Full 1080p Latino

    5.0 1h 48m 2004

    El pasado de Jason Bourne vuelve por él. En la segunda entrega de la saga de tres películas basadas...

    Director: Thorne Mutert

    Género: Acción

    Actores: Yevgeni Sitokhin

Comentarios 0