Advertise here

Destino final 3 (2006) Full 1080p Latino

306 vistas
1 estrella2 estrellas3 estrellas4 estrellas5 estrellas (Ninguna valoración todavía)
Cargando…

Información de Destino final 3 (2006) Full 1080p Latino

Datos de la película

  • Calidad: Full 1080p
  • Audio: Español Latino AC3 2.0 BLURAY - Ingles AC3 5.1 BLURAY
  • Subtitulos: Español Latino SRT
  • Resolución: 1920X1080
  • Formato: MKV
  • Codec: H.264
  • Encoder: Dpelis
  • Mediainfo: Clic para Mostrar Datos Ver
  • Format                                   : Matroska
    Format version                           : Version 4 / Version 2
    File size                                : 5.12 GiB
    Duration                                 : 1 h 32 min
    Overall bit rate                         : 7 891 kb/s
    Movie name                               : dpeliculashdmega.org
    Encoded date                             : UTC 2017-11-12 03:21:03 / UTC 2017-11-10T03:59:58Z
    Writing application                      : mkvmerge v15.0.0 ('Duel with the Devil') 64-bit
    Writing library                          : libebml v1.3.5 + libmatroska v1.4.5 / Lavf57.7.2

    Video
    ID                                       : 1
    Format                                   : AVC
    Format/Info                              : Advanced Video Codec
    Format profile                           : [email protected]
    Format settings                          : CABAC / 4 Ref Frames
    Format settings, CABAC                   : Yes
    Format settings, RefFrames               : 4 frames
    Codec ID                                 : V_MPEG4/ISO/AVC
    Duration                                 : 1 h 32 min
    Bit rate                                 : 6 838 kb/s
    Width                                    : 1 920 pixels
    Height                                   : 1 080 pixels
    Display aspect ratio                     : 16:9
    Frame rate mode                          : Constant
    Frame rate                               : 23.976 (24000/1001) FPS
    Color space                              : YUV
    Chroma subsampling                       : 4:2:0
    Bit depth                                : 8 bits
    Scan type                                : Progressive
    Bits/(Pixel*Frame)                       : 0.138
    Stream size                              : 4.43 GiB (87%)
    Title                                    : Destino final 3 (2006) Full 1080p Latino
    Writing library                          : x264 core 148 r2708 86b7198
    Encoding settings                        : cabac=1 / ref=4 / deblock=1:0:0 / analyse=0x3:0x133 / me=esa / subme=10 / psy=1 / psy_rd=1.00:0.00 / mixed_ref=1 / me_range=24 / chroma_me=1 / trellis=2 / 8x8dct=1 / cqm=0 / deadzone=21,11 / fast_pskip=1 / chroma_qp_offset=-2 / threads=34 / lookahead_threads=5 / sliced_threads=0 / nr=0 / decimate=1 / interlaced=0 / bluray_compat=0 / constrained_intra=0 / bframes=8 / b_pyramid=2 / b_adapt=2 / b_bias=0 / direct=3 / weightb=1 / open_gop=0 / weightp=2 / keyint=240 / keyint_min=24 / scenecut=40 / intra_refresh=0 / rc_lookahead=60 / rc=crf / mbtree=1 / crf=20.0 / qcomp=0.60 / qpmin=0 / qpmax=69 / qpstep=4 / vbv_maxrate=62500 / vbv_bufsize=78125 / crf_max=0.0 / nal_hrd=none / filler=0 / ip_ratio=1.40 / aq=1:1.00
    Language                                 : English
    Default                                  : Yes
    Forced                                   : No
    Color range                              : Limited
    Color primaries                          : BT.709
    Transfer characteristics                 : BT.709
    Matrix coefficients                      : BT.709
    Statistics Tags Issue                    : mkvmerge v15.0.0 ('Duel with the Devil') 64-bit 2017-11-12 03:21:03 / mkvmerge v15.0.0 ('Duel with the Devil') 64-bit 2017-11-12 03:21:03 / UTC 2017-11-10T03:59:58Z
    FromStats_BitRate                        : 6992848
    FromStats_Duration                       : 01:32:50.690000000
    FromStats_FrameCount                     : 133563
    FromStats_StreamSize                     : 4869374225

    Audio #1
    ID                                       : 2
    Format                                   : AC-3
    Format/Info                              : Audio Coding 3
    Format settings, Endianness              : Big
    Codec ID                                 : A_AC3
    Duration                                 : 1 h 32 min
    Bit rate mode                            : Constant
    Bit rate                                 : 256 kb/s
    Channel(s)                               : 2 channels
    Channel positions                        : Front: L R
    Sampling rate                            : 48.0 kHz
    Frame rate                               : 31.250 FPS (1536 SPF)
    Bit depth                                : 16 bits
    Compression mode                         : Lossy
    Delay relative to video                  : 1 s 450 ms
    Stream size                              : 170 MiB (3%)
    Title                                    : Latino-AC3
    Language                                 : Spanish
    Service kind                             : Complete Main
    Default                                  : Yes
    Forced                                   : No
    Statistics Tags Issue                    : mkvmerge v15.0.0 ('Duel with the Devil') 64-bit 2017-11-12 03:21:03 / mkvmerge v15.0.0 ('Duel with the Devil') 64-bit 2017-11-12 03:21:03 / UTC 2017-11-10T03:59:58Z
    FromStats_BitRate                        : 256000
    FromStats_Duration                       : 01:32:49.120000000
    FromStats_FrameCount                     : 174035
    FromStats_StreamSize                     : 178211840

    Audio #2
    ID                                       : 3
    Format                                   : AC-3
    Format/Info                              : Audio Coding 3
    Format settings, Endianness              : Big
    Codec ID                                 : A_AC3
    Duration                                 : 1 h 32 min
    Bit rate mode                            : Constant
    Bit rate                                 : 640 kb/s
    Channel(s)                               : 6 channels
    Channel positions                        : Front: L C R, Side: L R, LFE
    Sampling rate                            : 48.0 kHz
    Frame rate                               : 31.250 FPS (1536 SPF)
    Bit depth                                : 16 bits
    Compression mode                         : Lossy
    Stream size                              : 425 MiB (8%)
    Title                                    : Ingles-AC3
    Language                                 : English
    Service kind                             : Complete Main
    Default                                  : No
    Forced                                   : No
    Statistics Tags Issue                    : mkvmerge v15.0.0 ('Duel with the Devil') 64-bit 2017-11-12 03:21:03 / mkvmerge v15.0.0 ('Duel with the Devil') 64-bit 2017-11-12 03:21:03 / UTC 2017-11-10T03:59:58Z
    FromStats_BitRate                        : 640000
    FromStats_Duration                       : 01:32:50.720000000
    FromStats_FrameCount                     : 174085
    FromStats_StreamSize                     : 445657600

    Text
    ID                                       : 4
    Format                                   : UTF-8
    Codec ID                                 : S_TEXT/UTF8
    Codec ID/Info                            : UTF-8 Plain Text
    Title                                    : SRT
    Language                                 : Spanish
    Default                                  : No
    Forced                                   : No
    Statistics Tags Issue                    : mkvmerge v15.0.0 ('Duel with the Devil') 64-bit 2017-11-12 03:21:03 / mkvmerge v15.0.0 ('Duel with the Devil') 64-bit 2017-11-12 03:21:03 / UTC 2017-11-10T03:59:58Z
    FromStats_BitRate                        : 47
    FromStats_Duration                       : 01:26:16.545000000
    FromStats_FrameCount                     : 957
    FromStats_StreamSize                     : 30429

    Menu
    00:00:00.000                             : :Do You Believe In Fortunes?
    00:02:35.572                             : :High Die
    00:04:02.951                             : :Take A Shot Of This
    00:09:22.687                             : :Meet You At The End
    00:14:33.748                             : :The Vision
    00:21:27.369                             : :It's Happened Before
    00:26:22.498                             : :Beds Are Burning
    00:38:11.164                             : :Take A Dirt Nap
    00:44:43.764                             : :Turn Around, Look At Me
    00:49:45.983                             : :The Clues
    00:52:33.776                             : :Just Win, Baby
    00:55:42.339                             : :Death Renovates
    01:03:51.453                             : :A Utilitarian Choice
    01:06:13.219                             : :Who's Next
    01:11:17.023                             : :Liberty Or Death?
    01:17:54.336                             : :McKinley's Fireworks
    01:19:58.002                             : :End Of The Line
    01:27:08.849                             : :End Credits

  • Peso: 5.12 GiB

Sinopsis

En el que debería ser el mejor día de su vida, Wendy celebra con sus amigos la noche de su graduación del instituto en un parque de atracciones. Están a punto de subir a una montaña rusa cuando de repente Wendy se asusta. Su novio – Jason – la tranquiliza diciéndole que sólo se pone nerviosa porque sabe que no podrá controlar lo que va a ocurrir. Wendy se domina pero en cuanto baja el arnés de seguridad, atrapándola en el asiento, tiene una premonición: va a haber un terrible accidente en el que la montaña rusa se convertirá en una trampa mortal para ella y sus amigos.

Ficha técnica

Video trailer de la película

Enlaces de descarga

Descargar Destino final 3 (2006) Full 1080p Latino
Descargar

dpeliculas

Aportes de DPeliculasHDmega la pass es:dpeliculashdmega.org Aportes de CinemaniaHD la pass es:cinemaniahdd.com

Películas relacionadas

  • Toy Story 3 (2010) Full 1080p Latino

    2010
    Toy Story 3 (2010) Full 1080p Latino

    0.0 1 h 43 min 2010

    Sabiendo que su dueño Andy, que ya no es un niño, se prepara para ir a la universidad, el vaquero Woody,...

    Director: Mark Sanford

    Género: Animación

    Actores: Whoopi Goldberg

  • Toy Story (1995) Full 1080p Latino

    1995
    Toy Story (1995) Full 1080p Latino

    0.0 1 h 21 min 1995

    Los juguetes de Andy, un niño de 6 años, temen que haya llegado su hora y que un nuevo regalo de cumpleaños...

    Director: Roman Figun

    Género: Animación

    Actores: Wallace Shawn

  • Avatar (2009) EXTENDED Full 1080p Latino

    2009
    Avatar (2009) EXTENDED Full 1080p Latino

    0.0 2 h 58 min 2009

    Jake Sully, un ex-marine confinado a una silla de ruedas, es reclutado para viajar al planeta Pandora,...

    Director: James Cameron

    Género: Acción

    Actores: Zoe Saldana

  • 300: El origen de un imperio (2014) Full 1080p Latino

    2014
    300: El origen de un imperio (2014) Full 1080p Latino

    5.0 1 h 42 min 2014

    La historia se ambienta en el año 490 a.C., unos diez años antes de la batalla de las Termópilas....

    Director: Noam Murro

    Género: Acción

    Actores: Wayne Dalglish

Comentarios 0