Advertise here

Destino final 2 (2003) Full 1080p Latino

415 vistas
1 estrella2 estrellas3 estrellas4 estrellas5 estrellas (Ninguna valoración todavía)
Cargando…

Información de Destino final 2 (2003) Full 1080p Latino

Datos de la película

  • Calidad: Full 1080p
  • Audio: Español Latino AC3 5.1 BLURAY - Ingles AC3 5.1 BLURAY
  • Subtitulos: Español Latino SRT
  • Resolución: 1920X1080
  • Formato: MKV
  • Codec: H.264
  • Encoder: Dpelis
  • Mediainfo: Clic para Mostrar Datos Ver
  • Format                                   : Matroska
    Format version                           : Version 4 / Version 2
    File size                                : 5.39 GiB
    Duration                                 : 1 h 30 min
    Overall bit rate                         : 8 550 kb/s
    Movie name                               : dpeliculashdmega.org
    Encoded date                             : UTC 2017-11-10 05:35:41 / UTC 2017-11-10T00:55:34Z
    Writing application                      : mkvmerge v15.0.0 ('Duel with the Devil') 64-bit
    Writing library                          : libebml v1.3.5 + libmatroska v1.4.5 / Lavf57.7.2

    Video
    ID                                       : 1
    Format                                   : AVC
    Format/Info                              : Advanced Video Codec
    Format profile                           : [email protected]
    Format settings                          : CABAC / 4 Ref Frames
    Format settings, CABAC                   : Yes
    Format settings, RefFrames               : 4 frames
    Codec ID                                 : V_MPEG4/ISO/AVC
    Duration                                 : 1 h 30 min
    Bit rate                                 : 7 100 kb/s
    Width                                    : 1 920 pixels
    Height                                   : 1 080 pixels
    Display aspect ratio                     : 16:9
    Frame rate mode                          : Constant
    Frame rate                               : 23.976 (24000/1001) FPS
    Color space                              : YUV
    Chroma subsampling                       : 4:2:0
    Bit depth                                : 8 bits
    Scan type                                : Progressive
    Bits/(Pixel*Frame)                       : 0.143
    Stream size                              : 4.47 GiB (83%)
    Title                                    : Destino final 2 (2003) Full 1080p Latino
    Writing library                          : x264 core 148 r2708 86b7198
    Encoding settings                        : cabac=1 / ref=4 / deblock=1:0:0 / analyse=0x3:0x133 / me=esa / subme=10 / psy=1 / psy_rd=1.00:0.00 / mixed_ref=1 / me_range=24 / chroma_me=1 / trellis=2 / 8x8dct=1 / cqm=0 / deadzone=21,11 / fast_pskip=1 / chroma_qp_offset=-2 / threads=34 / lookahead_threads=5 / sliced_threads=0 / nr=0 / decimate=1 / interlaced=0 / bluray_compat=0 / constrained_intra=0 / bframes=8 / b_pyramid=2 / b_adapt=2 / b_bias=0 / direct=3 / weightb=1 / open_gop=0 / weightp=2 / keyint=240 / keyint_min=24 / scenecut=40 / intra_refresh=0 / rc_lookahead=60 / rc=crf / mbtree=1 / crf=20.0 / qcomp=0.60 / qpmin=0 / qpmax=69 / qpstep=4 / vbv_maxrate=62500 / vbv_bufsize=78125 / crf_max=0.0 / nal_hrd=none / filler=0 / ip_ratio=1.40 / aq=1:1.00
    Language                                 : English
    Default                                  : Yes
    Forced                                   : No
    Color range                              : Limited
    Color primaries                          : BT.709
    Transfer characteristics                 : BT.709
    Matrix coefficients                      : BT.709
    Statistics Tags Issue                    : mkvmerge v15.0.0 ('Duel with the Devil') 64-bit 2017-11-10 05:35:41 / mkvmerge v15.0.0 ('Duel with the Devil') 64-bit 2017-11-10 05:35:41 / UTC 2017-11-10T00:55:34Z
    FromStats_BitRate                        : 7267759
    FromStats_Duration                       : 01:30:11.198000000
    FromStats_FrameCount                     : 129739
    FromStats_StreamSize                     : 4915910785

    Audio #1
    ID                                       : 2
    Format                                   : AC-3
    Format/Info                              : Audio Coding 3
    Format settings, Endianness              : Big
    Codec ID                                 : A_AC3
    Duration                                 : 1 h 30 min
    Bit rate mode                            : Constant
    Bit rate                                 : 640 kb/s
    Channel(s)                               : 6 channels
    Channel positions                        : Front: L C R, Side: L R, LFE
    Sampling rate                            : 48.0 kHz
    Frame rate                               : 31.250 FPS (1536 SPF)
    Bit depth                                : 16 bits
    Compression mode                         : Lossy
    Delay relative to video                  : 1 s 250 ms
    Stream size                              : 413 MiB (7%)
    Title                                    : Latino-AC3
    Language                                 : Spanish
    Service kind                             : Complete Main
    Default                                  : Yes
    Forced                                   : No
    Statistics Tags Issue                    : mkvmerge v15.0.0 ('Duel with the Devil') 64-bit 2017-11-10 05:35:41 / mkvmerge v15.0.0 ('Duel with the Devil') 64-bit 2017-11-10 05:35:41 / UTC 2017-11-10T00:55:34Z
    FromStats_BitRate                        : 640000
    FromStats_Duration                       : 01:30:09.728000000
    FromStats_FrameCount                     : 169054
    FromStats_StreamSize                     : 432778240

    Audio #2
    ID                                       : 3
    Format                                   : AC-3
    Format/Info                              : Audio Coding 3
    Format settings, Endianness              : Big
    Codec ID                                 : A_AC3
    Duration                                 : 1 h 30 min
    Bit rate mode                            : Constant
    Bit rate                                 : 640 kb/s
    Channel(s)                               : 6 channels
    Channel positions                        : Front: L C R, Side: L R, LFE
    Sampling rate                            : 48.0 kHz
    Frame rate                               : 31.250 FPS (1536 SPF)
    Bit depth                                : 16 bits
    Compression mode                         : Lossy
    Stream size                              : 413 MiB (7%)
    Title                                    : Ingles-AC3
    Language                                 : English
    Service kind                             : Complete Main
    Default                                  : No
    Forced                                   : No
    Statistics Tags Issue                    : mkvmerge v15.0.0 ('Duel with the Devil') 64-bit 2017-11-10 05:35:41 / mkvmerge v15.0.0 ('Duel with the Devil') 64-bit 2017-11-10 05:35:41 / UTC 2017-11-10T00:55:34Z
    FromStats_BitRate                        : 640000
    FromStats_Duration                       : 01:30:11.200000000
    FromStats_FrameCount                     : 169100
    FromStats_StreamSize                     : 432896000

    Text
    ID                                       : 4
    Format                                   : UTF-8
    Codec ID                                 : S_TEXT/UTF8
    Codec ID/Info                            : UTF-8 Plain Text
    Language                                 : Spanish
    Default                                  : No
    Forced                                   : No
    Statistics Tags Issue                    : mkvmerge v15.0.0 ('Duel with the Devil') 64-bit 2017-11-10 05:35:41 / mkvmerge v15.0.0 ('Duel with the Devil') 64-bit 2017-11-10 05:35:41 / UTC 2017-11-10T00:55:34Z
    FromStats_BitRate                        : 52
    FromStats_Duration                       : 01:29:35.327000000
    FromStats_FrameCount                     : 938
    FromStats_StreamSize                     : 35084

    Menu
    00:00:00.000                             : :Main Titles / Death's Design
    00:04:48.330                             : :Deadly Commute
    00:16:39.415                             : :The Lucky Ones
    00:20:59.175                             : :Household Hazards
    00:29:51.790                             : :The Sole Survivor
    00:38:47.033                             : :A Trip To The Dentist
    00:44:52.815                             : :Expert Advice
    00:50:56.595                             : :Route 23 Reunion
    00:56:17.082                             : :Man With Hooks
    01:00:47.894                             : :Loose Ends
    01:08:14.716                             : :Scene Of The Accident
    01:12:55.037                             : :Code Blue
    01:19:09.954                             : :Recognizing The Signs
    01:22:52.468                             : :New Life / Epilogue
    01:25:17.529                             : :End Credits

  • Peso: 5.39 GiB

Sinopsis

Kimberly Corman se va de vacaciones con sus amigos Dano , Shaina y Frankie hacia Daytona Beach. De repente, un camión cargado de troncos pierde el control al reventarse la cadena que los sostiene, cayendo y rodando por la autopista donde se origina un trágico accidente, matando a todos los que se encuentran a su paso. Pero esto solo fue una premonición de Kimberly, que al volver a la realidad se asusta y detiene la camioneta en plena desviación de la autopista, de modo que ocasiona que los autos que van detrás se detengan haciendo un gran atasco. Un policía , se acerca a ver que ocurre, y Kim le cuenta lo que ha visto. El policía no le cree y trata de tranquilizarla haciéndole entender que es solo su imaginación, y le ruega que retire el auto del camino, pero Kim se niega, cuando de repente, el camión de troncos cruza ante sus ojos y se cumple la catástrofe, tal y como ella lo había contado.

Ficha técnica

Video trailer de la película

Enlaces de descarga

Descargar Destino final 2 (2003) Full 1080p Latino
Descargar

dpeliculas

Aportes de DPeliculasHDmega la pass es:dpeliculashdmega.org Aportes de CinemaniaHD la pass es:cinemaniahdd.com

Películas relacionadas

  • Toy Story 3 (2010) Full 1080p Latino

    2010
    Toy Story 3 (2010) Full 1080p Latino

    0.0 1 h 43 min 2010

    Sabiendo que su dueño Andy, que ya no es un niño, se prepara para ir a la universidad, el vaquero Woody,...

    Director: Mark Sanford

    Género: Animación

    Actores: Whoopi Goldberg

  • Toy Story (1995) Full 1080p Latino

    1995
    Toy Story (1995) Full 1080p Latino

    0.0 1 h 21 min 1995

    Los juguetes de Andy, un niño de 6 años, temen que haya llegado su hora y que un nuevo regalo de cumpleaños...

    Director: Roman Figun

    Género: Animación

    Actores: Wallace Shawn

  • Avatar (2009) EXTENDED Full 1080p Latino

    2009
    Avatar (2009) EXTENDED Full 1080p Latino

    0.0 2 h 58 min 2009

    Jake Sully, un ex-marine confinado a una silla de ruedas, es reclutado para viajar al planeta Pandora,...

    Director: James Cameron

    Género: Acción

    Actores: Zoe Saldana

Comentarios 2
  • YIMI - 11 noviembre, 2017

    MUY BUEN APORTE SE VE GENIAL ESPERO QUE PUEDAN SUBIR TODA LA SAGA!!!!!!!!!

    • Dpelis2 pelis2

      Autor
      - 11 noviembre, 2017

      Claro que se viene toda la saga. Saludos