Advertise here

Despido procedente (2017) Full 1080p Castellano

730 vistas
1 estrella2 estrellas3 estrellas4 estrellas5 estrellas (Ninguna valoración todavía)
Cargando…

Información de Despido procedente (2017) Full 1080p Castellano

Datos de la película

  • Calidad: Full 1080p
  • Audio: Español DTS 5.1 BLURAY
  • Subtitulos: Español PGS - Ingles PGS
  • Resolución: 1920X1080
  • Formato: MKV
  • Codec: H.264
  • Encoder: Dpelis
  • Mediainfo: Clic para Mostrar Datos Ver
  • Format                                   : Matroska
    Format version                           : Version 4 / Version 2
    File size                                : 1.99 GiB
    Duration                                 : 1 h 29 min
    Overall bit rate                         : 3 189 kb/s
    Movie name                               : dpeliculashdmega.org
    Encoded date                             : UTC 2017-11-04 23:14:10 / UTC 2017-11-04T05:57:13Z
    Writing application                      : mkvmerge v15.0.0 ('Duel with the Devil') 64-bit
    Writing library                          : libebml v1.3.5 + libmatroska v1.4.5 / Lavf57.7.2

    Video
    ID                                       : 1
    Format                                   : AVC
    Format/Info                              : Advanced Video Codec
    Format profile                           : [email protected]
    Format settings                          : CABAC / 4 Ref Frames
    Format settings, CABAC                   : Yes
    Format settings, RefFrames               : 4 frames
    Codec ID                                 : V_MPEG4/ISO/AVC
    Duration                                 : 1 h 29 min
    Bit rate                                 : 2 678 kb/s
    Width                                    : 1 920 pixels
    Height                                   : 1 080 pixels
    Display aspect ratio                     : 16:9
    Frame rate mode                          : Constant
    Frame rate                               : 24.000 FPS
    Color space                              : YUV
    Chroma subsampling                       : 4:2:0
    Bit depth                                : 8 bits
    Scan type                                : Progressive
    Bits/(Pixel*Frame)                       : 0.054
    Stream size                              : 1.67 GiB (84%)
    Title                                    : Despido procedente (2017) Full 1080p Castellano
    Writing library                          : x264 core 148 r2708 86b7198
    Encoding settings                        : cabac=1 / ref=4 / deblock=1:0:0 / analyse=0x3:0x133 / me=esa / subme=10 / psy=1 / psy_rd=1.00:0.00 / mixed_ref=1 / me_range=24 / chroma_me=1 / trellis=2 / 8x8dct=1 / cqm=0 / deadzone=21,11 / fast_pskip=1 / chroma_qp_offset=-2 / threads=34 / lookahead_threads=5 / sliced_threads=0 / nr=0 / decimate=1 / interlaced=0 / bluray_compat=0 / constrained_intra=0 / bframes=8 / b_pyramid=2 / b_adapt=2 / b_bias=0 / direct=3 / weightb=1 / open_gop=0 / weightp=2 / keyint=240 / keyint_min=24 / scenecut=40 / intra_refresh=0 / rc_lookahead=60 / rc=crf / mbtree=1 / crf=20.0 / qcomp=0.60 / qpmin=0 / qpmax=69 / qpstep=4 / vbv_maxrate=62500 / vbv_bufsize=78125 / crf_max=0.0 / nal_hrd=none / filler=0 / ip_ratio=1.40 / aq=1:1.00
    Language                                 : Spanish
    Default                                  : Yes
    Forced                                   : No
    Color range                              : Limited
    Color primaries                          : BT.709
    Transfer characteristics                 : BT.709
    Matrix coefficients                      : BT.709
    Statistics Tags Issue                    : mkvmerge v15.0.0 ('Duel with the Devil') 64-bit 2017-11-04 23:14:10 / mkvmerge v15.0.0 ('Duel with the Devil') 64-bit 2017-11-04 23:14:10 / UTC 2017-11-04T05:57:13Z
    FromStats_BitRate                        : 2734152
    FromStats_Duration                       : 01:29:21.000000000
    FromStats_FrameCount                     : 128664
    FromStats_StreamSize                     : 1832223818

    Audio
    ID                                       : 2
    Format                                   : AC-3
    Format/Info                              : Audio Coding 3
    Format settings, Endianness              : Big
    Codec ID                                 : A_AC3
    Duration                                 : 1 h 29 min
    Bit rate mode                            : Constant
    Bit rate                                 : 448 kb/s
    Channel(s)                               : 6 channels
    Channel positions                        : Front: L C R, Side: L R, LFE
    Sampling rate                            : 48.0 kHz
    Frame rate                               : 31.250 FPS (1536 SPF)
    Bit depth                                : 16 bits
    Compression mode                         : Lossy
    Stream size                              : 286 MiB (14%)
    Title                                    : Castellano-AC3
    Language                                 : Spanish
    Service kind                             : Complete Main
    Default                                  : Yes
    Forced                                   : No
    Statistics Tags Issue                    : mkvmerge v15.0.0 ('Duel with the Devil') 64-bit 2017-11-04 23:14:10 / mkvmerge v15.0.0 ('Duel with the Devil') 64-bit 2017-11-04 23:14:10 / UTC 2017-11-04T05:57:13Z
    FromStats_BitRate                        : 447973
    FromStats_Duration                       : 01:29:21.376000000
    FromStats_FrameCount                     : 167543
    FromStats_StreamSize                     : 300219136

    Text #1
    ID                                       : 3
    Format                                   : PGS
    Muxing mode                              : zlib
    Codec ID                                 : S_HDMV/PGS
    Codec ID/Info                            : Picture based subtitle format used on BDs/HD-DVDs
    Language                                 : Spanish
    Default                                  : Yes
    Forced                                   : No
    Statistics Tags Issue                    : mkvmerge v15.0.0 ('Duel with the Devil') 64-bit 2017-11-04 23:14:10 / mkvmerge v15.0.0 ('Duel with the Devil') 64-bit 2017-11-04 23:14:10 / UTC 2017-11-04T05:57:13Z
    FromStats_BitRate                        : 2
    FromStats_Duration                       : 01:29:19.886000000
    FromStats_FrameCount                     : 4
    FromStats_StreamSize                     : 1352

    Text #2
    ID                                       : 4
    Format                                   : PGS
    Muxing mode                              : zlib
    Codec ID                                 : S_HDMV/PGS
    Codec ID/Info                            : Picture based subtitle format used on BDs/HD-DVDs
    Language                                 : English
    Default                                  : No
    Forced                                   : No
    Statistics Tags Issue                    : mkvmerge v15.0.0 ('Duel with the Devil') 64-bit 2017-11-04 23:14:10 / mkvmerge v15.0.0 ('Duel with the Devil') 64-bit 2017-11-04 23:14:10 / UTC 2017-11-04T05:57:13Z
    FromStats_BitRate                        : 23800
    FromStats_Duration                       : 01:28:49.094000000
    FromStats_FrameCount                     : 2786
    FromStats_StreamSize                     : 15854351

    Menu
    00:00:00.000                             : :Chapter 1
    00:00:00.250                             : :Chapter 2
    00:11:13.667                             : :Chapter 3
    00:22:09.625                             : :Chapter 4
    00:33:31.750                             : :Chapter 5
    00:44:02.000                             : :Chapter 6
    00:55:12.625                             : :Chapter 7
    01:05:49.208                             : :Chapter 8
    01:15:36.083                             : :Chapter 9

  • Peso: 1.99 GiB

Sinopsis

Imanol Arias interpreta a un directivo de una empresa de telecomunicaciones que está a punto de enfrentarse a la semana más importante de su vida, pero todos sus planes se verán truncados por la aparición de un escéntrico personaje, Dario Grandinetti, que hará de su semana un infierno.

 

Ficha técnica

  • Titulo original: Despido procedente
  • Fecha de lanzamiento: 30-06-2017 (Argentina, Spain)
  • Director: Lucas Figueroa
  • Género: Castellano, Comedia
  • Puntuación: 0.0 0 votos
  • Duración:
    1 h 29 min

Video trailer de la película

Enlaces de descarga

Descargar Despido procedente (2017) Full 1080p Castellano
Descargar

dpeliculas

Aportes de DPeliculasHDmega la pass es:dpeliculashdmega.org Aportes de CinemaniaHD la pass es:cinemaniahdd.com
Guardado en : Castellano , Comedia

Películas relacionadas

  • Locos por las nueces 2 (2017) 1080p Latino

    2017
    Locos por las nueces 2 (2017) 1080p Latino

    0.0 1h 35m 2017

    Continuación de Operación cacahuete en la que conoceremos las nuevas aventuras de la malhumorada ardilla...

    Director: Callan Brunker

    Género: Animación

    Actores: Will Arnett

  • Lo que de verdad importa (2017) Full 1080p Latino

    2017
    Lo que de verdad importa (2017) Full 1080p Latino

    0.0 1 h 48 min 2017

    Alex vive en Inglaterrra, trabaja arreglando aparatos eléctricos en una empresa que no va bien económicamente,...

    Director: Paco Arango

    Género: Castellano

    Actores: Suresh John

  • Jennifer’s Body (2009) UNRATED Full 1080p Latino

    2009
    Jennifer’s Body (2009) UNRATED Full 1080p Latino

    0.0 1 h 47 min 2009

    La guionista de "Juno" y la protagonista femenina de "Transformers" se juntan en un thriller en el que...

    Director: Karyn Kusama

    Género: Comedia

    Actores: Valerie Tian

  • Cars 3 (2017) Full 1080p Latino

    2017
    Cars 3 (2017) Full 1080p Latino

    0.0 1h 42m 2017

    Rayo McQueen sigue siendo el mejor coche de carreras del mundo, pero ahora que es uno de los más veteranos...

    Director: Brian Fee

    Género: 3D Half OU

    Actores: Tony Shalhoub

Comentarios 2
  • Mirella - 05 noviembre, 2017

    No es DTS el audio en castellano porq nos mienten asi ;(

    • Dpelis2 pelis2

      Autor
      - 05 noviembre, 2017

      DTS se refiere al formato del audio…