Desnudo (2017) Webdl 1080p Latino

1.939 vistas
1 estrella2 estrellas3 estrellas4 estrellas5 estrellas (Ninguna valoración todavía)
Cargando…

Información de Desnudo (2017) Webdl 1080p Latino

Datos de la película

  • Calidad: WEBDL
  • Audio: Español Latino AC3 5.1 Netflix - Ingles AC3 5.1 Netflix
  • Subtitulos: Español Latino SRT - Ingles SRT
  • Resolución: 1920x960p
  • Formato: MKV
  • Codec: H.264
  • Encoder: Dpelis
  • Mediainfo: Ver Ver
  • Naked.2017.1080p.WEBDL.Latino.mkv
    Format                      : Matroska
    Format version              : Version 4 / Version 2
    File size                   : 4.81 GiB
    Duration                    : 1 h 36 min
    Overall bit rate            : 7 106 kb/s
    Movie name                  : DPeliculasHDMega.ORG
    Encoded date                : UTC 2017-08-11 22:29:06
    Writing application         : mkvmerge v10.0.0 ('To Drown In You') 64bit
    Writing library             : libebml v1.3.4 + libmatroska v1.4.5

    Video
    ID                          : 1
    Format                      : AVC
    Format/Info                 : Advanced Video Codec
    Format profile              : [email protected]
    Format settings, CABAC      : Yes
    Format settings, ReFrames   : 4 frames
    Codec ID                    : V_MPEG4/ISO/AVC
    Duration                    : 1 h 36 min
    Bit rate                    : 6 527 kb/s
    Width                       : 1 920 pixels
    Height                      : 960 pixels
    Display aspect ratio        : 2.000
    Frame rate mode             : Constant
    Frame rate                  : 23.976 (24000/1001) FPS
    Color space                 : YUV
    Chroma subsampling          : 4:2:0
    Bit depth                   : 8 bits
    Scan type                   : Progressive
    Bits/(Pixel*Frame)          : 0.148
    Stream size                 : 4.42 GiB (92%)
    Writing library             : x264 core 152 r2851 ba24899
    Encoding settings           : cabac=1 / ref=4 / deblock=1:-3:-3 / analyse=0x3:0x113 / me=umh / subme=8 / psy=1 / psy_rd=1.00:0.15 / mixed_ref=1 / me_range=16 / chroma_me=1 / trellis=2 / 8x8dct=1 / cqm=0 / deadzone=21,11 / fast_pskip=0 / chroma_qp_offset=-2 / threads=12 / lookahead_threads=2 / sliced_threads=0 / nr=0 / decimate=1 / interlaced=0 / bluray_compat=0 / constrained_intra=0 / bframes=3 / b_pyramid=2 / b_adapt=1 / b_bias=0 / direct=3 / weightb=1 / open_gop=0 / weightp=2 / keyint=240 / keyint_min=23 / scenecut=40 / intra_refresh=0 / rc_lookahead=50 / rc=crf / mbtree=1 / crf=17.0 / qcomp=0.60 / qpmin=0 / qpmax=69 / qpstep=4 / ip_ratio=1.40 / aq=3:0.80
    Language                    : English
    Default                     : Yes
    Forced                      : No

    Audio #1
    ID                          : 2
    Format                      : E-AC-3
    Format/Info                 : Enhanced Audio Coding 3
    Format settings, Endianness : Big
    Codec ID                    : A_EAC3
    Duration                    : 1 h 36 min
    Bit rate mode               : Constant
    Bit rate                    : 192 kb/s
    Channel(s)                  : 6 channels
    Channel positions           : Front: L C R, Side: L R, LFE
    Sampling rate               : 48.0 kHz
    Frame rate                  : 187.500 FPS (256 spf)
    Compression mode            : Lossy
    Stream size                 : 133 MiB (3%)
    Language                    : Spanish
    Service kind                : Complete Main
    Default                     : Yes
    Forced                      : No

    Audio #2
    ID                          : 3
    Format                      : AC-3
    Format/Info                 : Audio Coding 3
    Format settings, Endianness : Big
    Codec ID                    : A_AC3
    Duration                    : 1 h 36 min
    Bit rate mode               : Constant
    Bit rate                    : 384 kb/s
    Channel(s)                  : 6 channels
    Channel positions           : Front: L C R, Side: L R, LFE
    Sampling rate               : 48.0 kHz
    Frame rate                  : 31.250 FPS (1536 spf)
    Bit depth                   : 16 bits
    Compression mode            : Lossy
    Stream size                 : 266 MiB (5%)
    Language                    : English
    Service kind                : Complete Main
    Default                     : No
    Forced                      : No

    Text #1
    ID                          : 4
    Format                      : UTF-8
    Codec ID                    : S_TEXT/UTF8
    Codec ID/Info               : UTF-8 Plain Text
    Duration                    : 1 h 35 min
    Bit rate                    : 59 b/s
    Count of elements           : 1443
    Stream size                 : 41.7 KiB (0%)
    Language                    : Spanish
    Default                     : No
    Forced                      : No

    Text #2
    ID                          : 5
    Format                      : UTF-8
    Codec ID                    : S_TEXT/UTF8
    Codec ID/Info               : UTF-8 Plain Text
    Duration                    : 1 h 29 min
    Bit rate                    : 87 b/s
    Count of elements           : 1690
    Stream size                 : 57.0 KiB (0%)
    Language                    : English
    Default                     : No
    Forced                      : No

  • Peso: 4.81 GB

Sinopsis

Descargar Naked hd latino. Es una pelicula de Netflix, tambien conocida en latinoamerica como Desnudo 1080p Un chico es forzado a revivir una y otra vez las mismas horas de nervios que siente al casarse finalmente hasta que todo acabe saliendo bien, lo que resultará una difícil tarea, ya que despertará desnudo en un ascensor sin recordar nada de lo que ha ocurrido.

Michael Tiddes (Paranormal Movie, 50 sombras muy oscuras) dirige este ‘remake’ de la comedia sueca Naken. El reparto principal está formado por Regina Hall (Scary Movie 4), Marlon Wayans (Dos rubias de pelo en pecho) y Jwaundace Candece (Vamos de polis), entre otros.

Ficha técnica

  • Titulo original: Naked
  • Fecha de lanzamiento: 11-08-2017 (United States of America)
  • Director: Michael Tiddes
  • Género: Comedia
  • Puntuación: 0.0 0 votos
  • Duración:
    1h 36m

Imágenes, Capturas de la película

Video trailer de la película

Enlaces de descarga

Descargar Desnudo (2017) Webdl 1080p Latino
Descargar

dpeliculas

Aportes de DPeliculasHDmega la pass es:dpeliculashdmega.org Aportes de CinemaniaHD la pass es:cinemaniahdd.com
Guardado en : Comedia

PelícuDelas relacionadas

  • Atypical (2017) Temporada 1 WEBDL 1080p Latino

    2017
    Atypical (2017) Temporada 1 WEBDL 1080p Latino

    0.0 0h 33m 2017

    Descargar Serie de Netflix HD Latino, Atypical hd es una serie de Netflix con idioma Latino 5.1 La historia...

    Director: Robia Rashid

    Género: Comedia

    Actores: Jennifer Jason Leigh

  • Empeliculados (2017) Webdl 1080p Latino

    2017
    Empeliculados (2017) Webdl 1080p Latino

    0.0 1h 35m 2017

    Descargar Empeliculados hd latino, es una pelicula colombiana. Jorge, un director de cine soñador con...

    Director: Diego Fernando Bustamante

    Género: Comedia

    Actores: Paula Castaño

  • Kung Fu Yoga (2017) Full 1080p Castellano

    2017
    Kung Fu Yoga (2017) Full 1080p Castellano

    0.0 2h 10m 2017

    Descargar Kung Fu Yoga HD una película China pero con doblaje Castellano, no sabemos si habra latino...

    Director: Stanley Tong

    Género: Acción

    Actores: Zhang Guoli

Comentarios 3
  • Jhefferson - 11 Agosto, 2017

    Muchas gracias por este estreno y quisiera preguntar si habra version plateada para esperar

    • dpelis

      Administrador
      - 12 Agosto, 2017

      no habra estimado.es una pelicula de netflix

      • Jhefferson - 12 Agosto, 2017

        ok gracias por responder ya me lo imaginaba ya que el audio dice netflix por eso pregunte. entonces descargare esta version