Advertise here

Dejame salir (2017) 1080p Latino

3.832 vistas
1 estrella2 estrellas3 estrellas4 estrellas5 estrellas (2 votos, promedio: 5,00 de 5)
Cargando…

Información de Dejame salir (2017) 1080p Latino

Get Out 1080p latino

Datos de la película

  • Calidad: 1080p
  • Audio: Español Latino AC3 2.0 iTUNES - Ingles AC3 5.1 BLURAY
  • Subtitulos: Español Latino SRT - Ingles SRT
  • Resolución: 1920x800p
  • Formato: MKV
  • Codec: H.264
  • Encoder: Dpelis
  • Mediainfo: Clic para Mostrar Datos Ver
  • Get Out 2017 1080p Latino.mkv
    Format                      : Matroska
    Format version              : Version 4 / Version 2
    File size                   : 2.95 GiB
    Duration                    : 1 h 44 min
    Overall bit rate            : 4 055 kb/s
    Movie name                  : DPeliculasHDMeega.ORG
    Encoded date                : UTC 2017-05-13 12:40:23 / UTC 2017-05-13T04:49:48Z
    Writing application         : mkvmerge v10.0.0 ('To Drown In You') 64bit
    Writing library             : libebml v1.3.4 + libmatroska v1.4.5 / Lavf57.7.2

    Video
    ID                          : 1
    Format                      : AVC
    Format/Info                 : Advanced Video Codec
    Format profile              : [email protected]
    Format settings, CABAC      : Yes
    Format settings, ReFrames   : 4 frames
    Codec ID                    : V_MPEG4/ISO/AVC
    Duration                    : 1 h 44 min
    Bit rate                    : 3 500 kb/s
    Width                       : 1 920 pixels
    Height                      : 804 pixels
    Display aspect ratio        : 2.40:1
    Frame rate mode             : Constant
    Frame rate                  : 23.976 (24000/1001) FPS
    Color space                 : YUV
    Chroma subsampling          : 4:2:0
    Bit depth                   : 8 bits
    Scan type                   : Progressive
    Bits/(Pixel*Frame)          : 0.095
    Stream size                 : 2.47 GiB (84%)
    Writing library             : x264 core 148 r2708 86b7198
    Encoding settings           : cabac=1 / ref=3 / deblock=1:0:0 / analyse=0x3:0x113 / me=hex / subme=7 / psy=1 / psy_rd=1.00:0.00 / mixed_ref=1 / me_range=16 / chroma_me=1 / trellis=1 / 8x8dct=1 / cqm=0 / deadzone=21,11 / fast_pskip=1 / chroma_qp_offset=-2 / threads=12 / lookahead_threads=2 / sliced_threads=0 / nr=0 / decimate=1 / interlaced=0 / bluray_compat=0 / constrained_intra=0 / bframes=3 / b_pyramid=2 / b_adapt=1 / b_bias=0 / direct=1 / weightb=1 / open_gop=0 / weightp=2 / keyint=240 / keyint_min=24 / scenecut=40 / intra_refresh=0 / rc_lookahead=40 / rc=abr / mbtree=1 / bitrate=3500 / ratetol=1.0 / qcomp=0.60 / qpmin=0 / qpmax=69 / qpstep=4 / vbv_maxrate=62500 / vbv_bufsize=78125 / nal_hrd=none / filler=0 / ip_ratio=1.40 / aq=1:1.00
    Default                     : Yes
    Forced                      : No
    Color range                 : Limited
    Color primaries             : BT.709
    Transfer characteristics    : BT.709
    Matrix coefficients         : BT.709
    Statistics Tags Issue       : mkvmerge v10.0.0 ('To Drown In You') 64bit 2017-05-13 12:40:23 / mkvmerge v10.0.0 ('To Drown In You') 64bit 2017-05-13 12:40:23 / UTC 2017-05-13T04:49:48Z
    FromStats_BitRate           : 3457649
    FromStats_Duration          : 01:44:05.114000000
    FromStats_FrameCount        : 149733
    FromStats_StreamSize        : 2699176684

    Audio #1
    ID                          : 2
    Format                      : AC-3
    Format/Info                 : Audio Coding 3
    Format settings, Endianness : Big
    Codec ID                    : A_AC3
    Duration                    : 1 h 44 min
    Bit rate mode               : Constant
    Bit rate                    : 192 kb/s
    Channel(s)                  : 2 channels
    Channel positions           : Front: L R
    Sampling rate               : 48.0 kHz
    Frame rate                  : 31.250 FPS (1536 spf)
    Bit depth                   : 16 bits
    Compression mode            : Lossy
    Delay relative to video     : -5 ms
    Stream size                 : 143 MiB (5%)
    Title                       : Stereo
    Language                    : Spanish
    Service kind                : Complete Main
    Default                     : Yes
    Forced                      : No
    Statistics Tags Issue       : mkvmerge v10.0.0 ('To Drown In You') 64bit 2017-05-13 12:40:23 / mkvmerge v10.0.0 ('To Drown In You') 64bit 2017-05-13 12:40:23 / UTC 2017-05-13T04:49:48Z
    FromStats_BitRate           : 192000
    FromStats_Duration          : 01:44:05.152000000
    FromStats_FrameCount        : 195161
    FromStats_StreamSize        : 149883648

    Audio #2
    ID                          : 3
    Format                      : AC-3
    Format/Info                 : Audio Coding 3
    Format settings, Endianness : Big
    Codec ID                    : A_AC3
    Duration                    : 1 h 44 min
    Bit rate mode               : Constant
    Bit rate                    : 384 kb/s
    Channel(s)                  : 6 channels
    Channel positions           : Front: L C R, Side: L R, LFE
    Sampling rate               : 48.0 kHz
    Frame rate                  : 31.250 FPS (1536 spf)
    Bit depth                   : 16 bits
    Compression mode            : Lossy
    Delay relative to video     : -5 ms
    Stream size                 : 286 MiB (9%)
    Title                       : Surround
    Language                    : English
    Service kind                : Complete Main
    Default                     : No
    Forced                      : No
    Statistics Tags Issue       : mkvmerge v10.0.0 ('To Drown In You') 64bit 2017-05-13 12:40:23 / mkvmerge v10.0.0 ('To Drown In You') 64bit 2017-05-13 12:40:23 / UTC 2017-05-13T04:49:48Z
    FromStats_BitRate           : 384000
    FromStats_Duration          : 01:44:05.120000000
    FromStats_FrameCount        : 195160
    FromStats_StreamSize        : 299765760

    Text #1
    ID                          : 4
    Format                      : PGS
    Muxing mode                 : zlib
    Codec ID                    : S_HDMV/PGS
    Codec ID/Info               : Picture based subtitle format used on BDs/HD-DVDs
    Language                    : Spanish
    Default                     : No
    Forced                      : No
    Statistics Tags Issue       : mkvmerge v10.0.0 ('To Drown In You') 64bit 2017-05-13 12:40:23 / mkvmerge v10.0.0 ('To Drown In You') 64bit 2017-05-13 12:40:23 / UTC 2017-05-13T04:49:48Z
    FromStats_BitRate           : 8719
    FromStats_Duration          : 01:43:05.221000000
    FromStats_FrameCount        : 2409
    FromStats_StreamSize        : 6741142

    Text #2
    ID                          : 5
    Format                      : PGS
    Muxing mode                 : zlib
    Codec ID                    : S_HDMV/PGS
    Codec ID/Info               : Picture based subtitle format used on BDs/HD-DVDs
    Language                    : English
    Default                     : No
    Forced                      : No
    Statistics Tags Issue       : mkvmerge v10.0.0 ('To Drown In You') 64bit 2017-05-13 12:40:23 / mkvmerge v10.0.0 ('To Drown In You') 64bit 2017-05-13 12:40:23 / UTC 2017-05-13T04:49:48Z
    FromStats_BitRate           : 11379
    FromStats_Duration          : 01:38:54.429000000
    FromStats_FrameCount        : 2827
    FromStats_StreamSize        : 8441131

    Menu
    00:00:00.000                : :Chapter 1
    00:04:52.834                : :Chapter 2
    00:10:13.530                : :Chapter 3
    00:14:02.258                : :Chapter 4
    00:19:07.480                : :Chapter 5
    00:21:49.433                : :Chapter 6
    00:26:07.357                : :Chapter 7
    00:30:50.974                : :Chapter 8
    00:37:19.487                : :Chapter 9
    00:42:16.868                : :Chapter 10
    00:48:02.380                : :Chapter 11
    00:54:13.584                : :Chapter 12
    00:57:38.288                : :Chapter 13
    01:03:33.184                : :Chapter 14
    01:10:48.911                : :Chapter 15
    01:15:36.365                : :Chapter 16
    01:22:02.543                : :Chapter 17
    01:26:13.418                : :Chapter 18
    01:32:24.414                : :Chapter 19
    01:40:21.933                : :Chapter 20

  • Peso: 2.95 GB GB

Sinopsis

Descargar Peliculas Get Out 1080p Latino, Ahora que Chris y su novia, Rose, llegaron a la reunión de la marca y los Padres reunión, le invita a un fin de semana al norte con Missy y Dean. En primer lugar, el comportamiento de Chris lee demasiado servicial de la familia como los nervios intenta hacer frente relación interracial de su hija, pero a medida que el fin de semana, una serie de resultados cada vez más preocupantes para guiar el avance de la verdad de lo que jamás podría haber imaginado .

Ficha técnica

Video trailer de la película

Enlaces de descarga

Descargar Dejame salir (2017) 1080p Latino
Descargar
Descargar Dejame salir (2017) 1080p Latino

dpeliculas

Aportes de DPeliculasHDmega la pass es:dpeliculashdmega.org Aportes de CinemaniaHD la pass es:cinemaniahdd.com
Guardado en : Misterio , Suspense , Terror

Películas relacionadas

  • Imparable (2010) Full 1080p Latino

    2010
    Imparable (2010) Full 1080p Latino

    0.0 1 h 38 min 2010

    El destino cruza las vidas de un veterano ingeniero y la de un joven conductor cuando ambos tengan que...

    Director: Tony Scott

    Género: Acción

    Actores: Toni Saladna

  • Asesino: Mision Venganza (2017) WEBDL 1080p Latino

    2017
    Asesino: Mision Venganza (2017) WEBDL 1080p Latino

    4.0 1 h 51 min 2017

    Adaptación cinematográfica de la novela homónima de Vince Flynnm, cuya trama presenta a Mitch Rapp...

    Director: Michael Cuesta

    Género: Acción

    Actores: Yousef Sweid

  • Arrow (2017) Temporada 6 WEBDL 1080p Latino

    2012
    Arrow (2017) Temporada 6 WEBDL 1080p Latino

    3.0 0h 42m 2012

    Con el futuro del equipo pendiendo de un hilo, Arrow le dio una nueva definición a la frase “explotar...

    Director: Marc Guggenheim

    Género: Acción

    Actores: Willa Holland

  • La autopsia de Jane Doe (2016) Full 1080p Latino

    2016
    La autopsia de Jane Doe (2016) Full 1080p Latino

    0.0 1h 39m 2016

    En una pequeño pueblo de Virginia aparece el cuerpo desnudo y semienterrado de una hermosa joven, misteriosa...

    Director: Sheila McNaught

    Género: FULL 1080p Pesadas

    Actores: Parker Sawyers

Comentarios 3
  • Milton Soto - 16 mayo, 2017

    Para cuando la plateada o la HEVC?

    • dpelis

      Administrador
      - 16 mayo, 2017

      mas adelante, ya q latino bd demorara mucho

      • Milton Soto - 17 mayo, 2017

        Oh okay gracias la espero con ansias