DC Super Hero Girls: Intergalactic Games (2017) 1080p WEBDL Latino

1.708 vistas
1 estrella2 estrellas3 estrellas4 estrellas5 estrellas (1 votos, promedio: 2,00 de 5)
Cargando…

Información de DC Super Hero Girls: Intergalactic Games (2017) 1080p WEBDL Latino

Datos de la película

  • Calidad: WEBDL
  • Audio: Español Latino AC3 2.0 iTunes - Ingles AC3 5.1 iTunes
  • Subtitulos: Español Latino SRT
  • Resolución: 1920x1080p
  • Formato: MKV
  • Codec: H.264
  • Encoder: Dpelis1
  • Mediainfo: Ver Ver
  • DC Super Hero Girls_ Intergalactic G 2017 WEBDL 1080P Latino.mkv
    Format                      : Matroska
    Format version              : Version 4 / Version 2
    File size                   : 3.16 GiB
    Duration                    : 1 h 16 min
    Overall bit rate            : 5 870 kb/s
    Encoded date                : UTC 2017-05-09 12:30:59
    Writing application         : mkvmerge v10.0.0 ('To Drown In You') 64bit
    Writing library             : libebml v1.3.4 + libmatroska v1.4.5

    Video
    ID                          : 1
    Format                      : AVC
    Format/Info                 : Advanced Video Codec
    Format profile              : [email protected]
    Format settings, CABAC      : Yes
    Format settings, ReFrames   : 4 frames
    Codec ID                    : V_MPEG4/ISO/AVC
    Duration                    : 1 h 16 min
    Bit rate                    : 5 099 kb/s
    Width                       : 1 912 pixels
    Height                      : 1 072 pixels
    Display aspect ratio        : 16:9
    Frame rate mode             : Constant
    Frame rate                  : 23.976 FPS
    Color space                 : YUV
    Chroma subsampling          : 4:2:0
    Bit depth                   : 8 bits
    Scan type                   : Progressive
    Bits/(Pixel*Frame)          : 0.104
    Stream size                 : 2.74 GiB (87%)
    Language                    : English
    Default                     : Yes
    Forced                      : No
    Color range                 : Limited
    Color primaries             : BT.709
    Transfer characteristics    : BT.709
    Matrix coefficients         : BT.709

    Audio #1
    ID                          : 2
    Format                      : AC-3
    Format/Info                 : Audio Coding 3
    Format settings, Endianness : Big
    Codec ID                    : A_AC3
    Duration                    : 1 h 16 min
    Bit rate mode               : Constant
    Bit rate                    : 384 kb/s
    Channel(s)                  : 2 channels
    Channel positions           : Front: L R
    Sampling rate               : 48.0 kHz
    Frame rate                  : 31.250 FPS (1536 spf)
    Bit depth                   : 16 bits
    Compression mode            : Lossy
    Stream size                 : 211 MiB (7%)
    Language                    : Spanish
    Service kind                : Complete Main
    Default                     : Yes
    Forced                      : No

    Audio #2
    ID                          : 3
    Format                      : AC-3
    Format/Info                 : Audio Coding 3
    Format settings, Endianness : Big
    Codec ID                    : A_AC3
    Duration                    : 1 h 16 min
    Bit rate mode               : Constant
    Bit rate                    : 384 kb/s
    Channel(s)                  : 6 channels
    Channel positions           : Front: L C R, Side: L R, LFE
    Sampling rate               : 48.0 kHz
    Frame rate                  : 31.250 FPS (1536 spf)
    Bit depth                   : 16 bits
    Compression mode            : Lossy
    Stream size                 : 211 MiB (7%)
    Language                    : English
    Service kind                : Complete Main
    Default                     : No
    Forced                      : No

    Text
    ID                          : 4
    Format                      : UTF-8
    Codec ID                    : S_TEXT/UTF8
    Codec ID/Info               : UTF-8 Plain Text
    Duration                    : 1 h 13 min
    Bit rate                    : 66 b/s
    Count of elements           : 999
    Stream size                 : 35.6 KiB (0%)
    Language                    : Spanish
    Default                     : Yes
    Forced                      : No

    Menu
    00:00:00.000                : en:1
    00:12:15.000                : en:2
    00:21:53.000                : en:3
    00:29:58.000                : en:4
    00:43:56.000                : en:5
    00:56:55.000                : en:6
    01:11:39.000                : en:7

  • Peso: 3.16 GB

Sinopsis

Prepárese para los juegos intergalácticos; Una competencia amistosa que tiene como objetivo lograr la paz en toda la galaxia, pero con estos equipos en competencia, esto puede convertirse en una feroz poco’! En frente de la Academia Korguar y mujeres Furias, el equipo de la Super Hero puede llevar el campeonato? Equipo con la Mujer Maravilla, Supergirl y Batgirl como descubrir un desafío aún mayor en la industria como uno de los equipos tiene una razón mucho más siniestro para la competencia. Que comience el juego y la acción!

Ficha técnica

  • Titulo original: DC Super Hero Girls: Intergalactic Games
  • Fecha de lanzamiento: 23-05-2017
  • Director: Jennifer Coyle
  • Género: Animación, Superheroes
  • Puntuación: 2.0 1 votos
  • Duración:
    1h 16m

Imágenes, Capturas de la película

Video trailer de la película

Enlaces de descarga

Descargar DC Super Hero Girls: Intergalactic Games (2017) 1080p WEBDL Latino
Descargar

dpeliculas

Aportes de DPeliculasHDmega la pass es:dpeliculashdmega.org Aportes de CinemaniaHD la pass es:cinemaniahdd.com
Guardado en : Animación , Superheroes

PelícuDelas relacionadas

  • Enredados otra vez (2017) WEBDL 1080p Latino

    2017
    Enredados otra vez (2017) WEBDL 1080p Latino

    5.0 0h 55m 2017

    Descargar Pelicula Tangled: Before Ever After Calidad WEBDL Latino¡Mientras Rapunzel se prepara para...

    Director: Tom Caulfield

    Género: Animación

    Actores: Zachary Levi

  • Shopkins Chef Club (2016) 1080p WEB-DL Latino

    2016
    Shopkins Chef Club (2016) 1080p WEB-DL Latino

    0.0 0h 0m 2016

    La vida nunca es ordinaria en Shopville, pero las cosas están a punto de obtener un poco extraordinario...

    Director: Raymond McGrath

    Género: Animación

    Actores: Marieve Herington

Comentarios 2
  • Jorge - 16 julio, 2017

    Hola!! El enlace pastedpelis.club no funciona

    • dpelis

      Administrador
      - 21 julio, 2017

      reparado