Custodia (2016) 1080p WEB-DL Latino

676 vistas
1 estrella2 estrellas3 estrellas4 estrellas5 estrellas (Ninguna valoración todavía)
Cargando…

Información de Custodia (2016) 1080p WEB-DL Latino

Datos de la película

  • Calidad: WEBDL
  • Audio: Español Latino AC3 5.1 iTunes - Ingles AC3 5.1 iTunes
  • Subtitulos: Español Latino SRT - Ingles SRT
  • Resolución: 1916x796p
  • Formato: MKV
  • Codec: H.264
  • Encoder: Dpelis
  • Mediainfo: Ver Ver
  • Custody (2016 )webdl 1080p Latino.mkv
    Format                      : Matroska
    Format version              : Version 4 / Version 2
    File size                   : 3.91 GiB
    Duration                    : 1 h 44 min
    Overall bit rate            : 5 374 kb/s
    Movie name                  : DPeliculasHDMega.ORG
    Encoded date                : UTC 2017-07-12 04:09:23
    Writing application         : mkvmerge v10.0.0 ('To Drown In You') 64bit
    Writing library             : libebml v1.3.4 + libmatroska v1.4.5

    Video
    ID                          : 1
    Format                      : AVC
    Format/Info                 : Advanced Video Codec
    Format profile              : [email protected]
    Format settings, CABAC      : Yes
    Format settings, ReFrames   : 5 frames
    Codec ID                    : V_MPEG4/ISO/AVC
    Duration                    : 1 h 44 min
    Bit rate                    : 4 605 kb/s
    Width                       : 1 916 pixels
    Height                      : 796 pixels
    Display aspect ratio        : 2.40:1
    Frame rate mode             : Constant
    Frame rate                  : 23.976 FPS
    Color space                 : YUV
    Chroma subsampling          : 4:2:0
    Bit depth                   : 8 bits
    Scan type                   : Progressive
    Bits/(Pixel*Frame)          : 0.126
    Stream size                 : 3.35 GiB (86%)
    Language                    : English
    Default                     : Yes
    Forced                      : No
    Color range                 : Limited
    Color primaries             : BT.709
    Transfer characteristics    : BT.709
    Matrix coefficients         : BT.709

    Audio #1
    ID                          : 2
    Format                      : AC-3
    Format/Info                 : Audio Coding 3
    Format settings, Endianness : Big
    Codec ID                    : A_AC3
    Duration                    : 1 h 43 min
    Bit rate mode               : Constant
    Bit rate                    : 384 kb/s
    Channel(s)                  : 6 channels
    Channel positions           : Front: L C R, Side: L R, LFE
    Sampling rate               : 48.0 kHz
    Frame rate                  : 31.250 FPS (1536 spf)
    Bit depth                   : 16 bits
    Compression mode            : Lossy
    Stream size                 : 286 MiB (7%)
    Language                    : Spanish
    Service kind                : Complete Main
    Default                     : No
    Forced                      : No

    Audio #2
    ID                          : 3
    Format                      : AC-3
    Format/Info                 : Audio Coding 3
    Format settings, Endianness : Big
    Codec ID                    : A_AC3
    Duration                    : 1 h 43 min
    Bit rate mode               : Constant
    Bit rate                    : 384 kb/s
    Channel(s)                  : 6 channels
    Channel positions           : Front: L C R, Side: L R, LFE
    Sampling rate               : 48.0 kHz
    Frame rate                  : 31.250 FPS (1536 spf)
    Bit depth                   : 16 bits
    Compression mode            : Lossy
    Stream size                 : 286 MiB (7%)
    Language                    : English
    Service kind                : Complete Main
    Default                     : Yes
    Forced                      : No

    Text #1
    ID                          : 4
    Format                      : UTF-8
    Codec ID                    : S_TEXT/UTF8
    Codec ID/Info               : UTF-8 Plain Text
    Duration                    : 1 h 38 min
    Bit rate                    : 82 b/s
    Count of elements           : 1347
    Stream size                 : 59.3 KiB (0%)
    Language                    : Spanish
    Default                     : No
    Forced                      : No

    Text #2
    ID                          : 5
    Format                      : UTF-8
    Codec ID                    : S_TEXT/UTF8
    Codec ID/Info               : UTF-8 Plain Text
    Duration                    : 1 h 23 min
    Bit rate                    : 0 b/s
    Count of elements           : 9
    Stream size                 : 277 Bytes (0%)
    Title                       : FORZADOS
    Language                    : Spanish
    Default                     : Yes
    Forced                      : No

    Text #3
    ID                          : 6
    Format                      : UTF-8
    Codec ID                    : S_TEXT/UTF8
    Codec ID/Info               : UTF-8 Plain Text
    Duration                    : 1 h 40 min
    Bit rate                    : 86 b/s
    Count of elements           : 1761
    Stream size                 : 63.6 KiB (0%)
    Language                    : English
    Default                     : No
    Forced                      : No

    Menu
    00:00:00.000                : en:1
    00:06:03.571                : en:2
    00:14:13.852                : en:3
    00:19:55.985                : en:4
    00:25:47.836                : en:5
    00:34:10.547                : en:6
    00:42:30.463                : en:7
    00:49:18.954                : en:8
    00:56:52.407                : en:9
    01:02:12.809                : en:10
    01:09:59.025                : en:11
    01:15:46.621                : en:12
    01:21:17.283                : en:13
    01:26:24.505                : en:14
    01:33:34.100                : en:15
    01:38:48.079                : en:16

  • Peso: 3.91 GB

Sinopsis

Descargar Custody hd latino tambien conocida como Custoia 2016 hd latino Los servicios sociales creen que el accidente doméstico que sufre un niño ha sido en realidad un caso de maltrato, por lo que retiran la custodia a su madre. Con la ayuda de una joven abogada del turno de oficio, la madre, que trabaja de planchadora para mantener a sus hijos, emprenderá una lucha en los tribunales por recuperar la custodia.

Ficha técnica

  • Titulo original: Custody
  • Fecha de lanzamiento: 17-04-2016 (United States of America)
  • Director: James Lapine
  • Género: Drama
  • Puntuación: 0.0 0 votos
  • Duración:
    1h 44m

Imágenes, Capturas de la película

Video trailer de la película

Enlaces de descarga

Descargar Custodia (2016) 1080p WEB-DL Latino
Descargar

dpeliculas

Aportes de DPeliculasHDmega la pass es:dpeliculashdmega.org Aportes de CinemaniaHD la pass es:cinemaniahdd.com
Guardado en : Drama

PelícuDelas relacionadas

  • La vida de Pi (2012) 2160p 4K UHD Latino-Ingles

    2012
    La vida de Pi (2012) 2160p 4K UHD Latino-Ingles

    0.0 2h 7m 2012

    Descargar gratis La vida de Pi (2012) 2160p 4K UHD Latino-Ingles.  Pi Patel es un muchacho cuyo padre...

    Director: Ang Lee

    Género: 4K HDR

    Actores: Wang Bo-Chieh

  • Arrow (2017) Temporada 6 WEBDL 1080p Subtitulada

    2012
    Arrow (2017) Temporada 6 WEBDL 1080p Subtitulada

    0.0 0h 42m 2012

    Con el futuro del equipo pendiendo de un hilo, Arrow le dio una nueva definición a la frase “explotar...

    Director: Marc Guggenheim

    Género: Acción

    Actores: Willa Holland

  • La guerra del planeta de los simios (2017) 1080p Latino

    2017
    La guerra del planeta de los simios (2017) 1080p Latino

    5.0 2h 20m 2017

    En War for the Planet of the Apes, el tercer capítulo de la exitosa franquicia aclamada por la crítica,...

    Director: Matt Reeves

    Género: Ciencia ficción

    Actores: Woody Harrelson

  • En este rincón del mundo (2016) 1080p Latino

    2016
    En este rincón del mundo (2016) 1080p Latino

    0.0 2h 10m 2016

    La historia narra la vida de una familia residente en la ciudad de Kure (Hiroshima) durante la II Guerra...

    Director: Sunao Katabuchi

    Género: Animación

    Actores: Yoshimasa Hosoya

Comentarios 0