Advertise here

Cowboys & Aliens (2011) UNRATED Full 1080p Latino

613 vistas
1 estrella2 estrellas3 estrellas4 estrellas5 estrellas (Ninguna valoración todavía)
Cargando…

Información de Cowboys & Aliens (2011) UNRATED Full 1080p Latino

Datos de la película

  • Calidad: Full 1080p
  • Audio: Español Latino AC3 5.1 DVD - Ingles DTS 5.1 BLURAY
  • Subtitulos: Español Latino PGS - Ingles PGS
  • Resolución: 1920X1080
  • Formato: MKV
  • Codec: H.264
  • Encoder: Dpelis
  • Mediainfo: Clic para Mostrar Datos Ver
  • Format                                   : Matroska
    Format version                           : Version 4 / Version 2
    File size                                : 6.20 GiB
    Duration                                 : 2 h 15 min
    Overall bit rate                         : 6 546 kb/s
    Movie name                               : dpeliculashdmega.org
    Encoded date                             : UTC 2017-11-14 22:34:27 / UTC 2017-11-13T05:01:01Z
    Writing application                      : mkvmerge v15.0.0 ('Duel with the Devil') 64-bit
    Writing library                          : libebml v1.3.5 + libmatroska v1.4.5 / Lavf57.7.2

    Video
    ID                                       : 1
    Format                                   : AVC
    Format/Info                              : Advanced Video Codec
    Format profile                           : [email protected]
    Format settings                          : CABAC / 4 Ref Frames
    Format settings, CABAC                   : Yes
    Format settings, RefFrames               : 4 frames
    Codec ID                                 : V_MPEG4/ISO/AVC
    Duration                                 : 2 h 15 min
    Bit rate                                 : 4 459 kb/s
    Width                                    : 1 920 pixels
    Height                                   : 1 080 pixels
    Display aspect ratio                     : 16:9
    Frame rate mode                          : Constant
    Frame rate                               : 23.976 (24000/1001) FPS
    Color space                              : YUV
    Chroma subsampling                       : 4:2:0
    Bit depth                                : 8 bits
    Scan type                                : Progressive
    Bits/(Pixel*Frame)                       : 0.090
    Stream size                              : 4.22 GiB (68%)
    Title                                    : Cowboys & Aliens (2011) UNRATED Full 1080p Latino
    Writing library                          : x264 core 148 r2708 86b7198
    Encoding settings                        : cabac=1 / ref=4 / deblock=1:0:0 / analyse=0x3:0x133 / me=esa / subme=10 / psy=1 / psy_rd=1.00:0.00 / mixed_ref=1 / me_range=24 / chroma_me=1 / trellis=2 / 8x8dct=1 / cqm=0 / deadzone=21,11 / fast_pskip=1 / chroma_qp_offset=-2 / threads=34 / lookahead_threads=5 / sliced_threads=0 / nr=0 / decimate=1 / interlaced=0 / bluray_compat=0 / constrained_intra=0 / bframes=8 / b_pyramid=2 / b_adapt=2 / b_bias=0 / direct=3 / weightb=1 / open_gop=0 / weightp=2 / keyint=240 / keyint_min=24 / scenecut=40 / intra_refresh=0 / rc_lookahead=60 / rc=crf / mbtree=1 / crf=20.0 / qcomp=0.60 / qpmin=0 / qpmax=69 / qpstep=4 / vbv_maxrate=62500 / vbv_bufsize=78125 / crf_max=0.0 / nal_hrd=none / filler=0 / ip_ratio=1.40 / aq=1:1.00
    Language                                 : English
    Default                                  : Yes
    Forced                                   : No
    Color range                              : Limited
    Color primaries                          : BT.709
    Transfer characteristics                 : BT.709
    Matrix coefficients                      : BT.709
    Statistics Tags Issue                    : mkvmerge v15.0.0 ('Duel with the Devil') 64-bit 2017-11-14 22:34:27 / mkvmerge v15.0.0 ('Duel with the Devil') 64-bit 2017-11-14 22:34:27 / UTC 2017-11-13T05:01:01Z
    FromStats_BitRate                        : 4579382
    FromStats_Duration                       : 02:15:30.164000000
    FromStats_FrameCount                     : 194929
    FromStats_StreamSize                     : 4653891491

    Audio #1
    ID                                       : 2
    Format                                   : AC-3
    Format/Info                              : Audio Coding 3
    Format settings, Endianness              : Big
    Codec ID                                 : A_AC3
    Duration                                 : 2 h 15 min
    Bit rate mode                            : Constant
    Bit rate                                 : 448 kb/s
    Channel(s)                               : 6 channels
    Channel positions                        : Front: L C R, Side: L R, LFE
    Sampling rate                            : 48.0 kHz
    Frame rate                               : 31.250 FPS (1536 SPF)
    Bit depth                                : 16 bits
    Compression mode                         : Lossy
    Delay relative to video                  : 20 s 0 ms
    Stream size                              : 434 MiB (7%)
    Title                                    : Latino-AC3
    Language                                 : Spanish
    Service kind                             : Complete Main
    Default                                  : Yes
    Forced                                   : No
    Statistics Tags Issue                    : mkvmerge v15.0.0 ('Duel with the Devil') 64-bit 2017-11-14 22:34:27 / mkvmerge v15.0.0 ('Duel with the Devil') 64-bit 2017-11-14 22:34:27 / UTC 2017-11-13T05:01:01Z
    FromStats_BitRate                        : 448000
    FromStats_Duration                       : 02:15:13.376000000
    FromStats_FrameCount                     : 253543
    FromStats_StreamSize                     : 454349056

    Audio #2
    ID                                       : 3
    Format                                   : DTS
    Format/Info                              : Digital Theater Systems
    Mode                                     : 16
    Format settings, Endianness              : Big
    Codec ID                                 : A_DTS
    Duration                                 : 2 h 15 min
    Bit rate mode                            : Constant
    Bit rate                                 : 1 509 kb/s
    Channel(s)                               : 6 channels
    Channel positions                        : Front: L C R, Side: L R, LFE
    Sampling rate                            : 48.0 kHz
    Frame rate                               : 93.750 FPS (512 SPF)
    Bit depth                                : 24 bits
    Compression mode                         : Lossy
    Stream size                              : 1.43 GiB (23%)
    Title                                    : Ingles-AC3
    Language                                 : English
    Default                                  : No
    Forced                                   : No
    Statistics Tags Issue                    : mkvmerge v15.0.0 ('Duel with the Devil') 64-bit 2017-11-14 22:34:27 / mkvmerge v15.0.0 ('Duel with the Devil') 64-bit 2017-11-14 22:34:27 / UTC 2017-11-13T05:01:01Z
    FromStats_BitRate                        : 1508999
    FromStats_Duration                       : 02:15:30.166000000
    FromStats_FrameCount                     : 762203
    FromStats_StreamSize                     : 1533552436

    Text #1
    ID                                       : 4
    Format                                   : PGS
    Muxing mode                              : zlib
    Codec ID                                 : S_HDMV/PGS
    Codec ID/Info                            : Picture based subtitle format used on BDs/HD-DVDs
    Language                                 : English
    Default                                  : No
    Forced                                   : No
    Statistics Tags Issue                    : mkvmerge v15.0.0 ('Duel with the Devil') 64-bit 2017-11-14 22:34:27 / mkvmerge v15.0.0 ('Duel with the Devil') 64-bit 2017-11-14 22:34:27 / UTC 2017-11-13T05:01:01Z
    FromStats_BitRate                        : 20125
    FromStats_Duration                       : 02:07:11.373000000
    FromStats_FrameCount                     : 1984
    FromStats_StreamSize                     : 19197727

    Text #2
    ID                                       : 5
    Format                                   : PGS
    Muxing mode                              : zlib
    Codec ID                                 : S_HDMV/PGS
    Codec ID/Info                            : Picture based subtitle format used on BDs/HD-DVDs
    Language                                 : Spanish
    Default                                  : No
    Forced                                   : No
    Statistics Tags Issue                    : mkvmerge v15.0.0 ('Duel with the Devil') 64-bit 2017-11-14 22:34:27 / mkvmerge v15.0.0 ('Duel with the Devil') 64-bit 2017-11-14 22:34:27 / UTC 2017-11-13T05:01:01Z
    FromStats_BitRate                        : 18440
    FromStats_Duration                       : 02:11:44.730000000
    FromStats_FrameCount                     : 1962
    FromStats_StreamSize                     : 18220511

    Menu
    00:00:00.000                             : :00:00:00.000
    00:08:03.358                             : :00:08:03.358
    00:18:00.788                             : :00:18:00.788
    00:25:42.875                             : :00:25:42.875
    00:31:37.979                             : :00:31:37.979
    00:41:50.591                             : :00:41:50.591
    00:49:52.239                             : :00:49:52.239
    00:57:27.069                             : :00:57:27.069
    01:02:51.268                             : :01:02:51.267
    01:06:26.691                             : :01:06:26.691
    01:13:03.629                             : :01:13:03.629
    01:17:39.697                             : :01:17:39.697
    01:23:24.458                             : :01:23:24.458
    01:29:07.175                             : :01:29:07.175
    01:41:02.932                             : :01:41:02.932
    01:45:52.763                             : :01:45:52.763
    01:49:48.540                             : :01:49:48.540
    01:55:57.784                             : :01:55:57.784
    02:02:34.722                             : :02:02:34.722
    02:11:20.289                             : :02:11:20.289

  • Peso: 6.20 GiB

Sinopsis

Arizona, 1873. Un extraño, que no recuerda su pasado, acaba por casualidad en el duro y desértico pueblo de Absolution. Pronto descubre que los forasteros no son bienvenidos y que nadie mueve un dedo en sus calles sin que se lo ordene el Coronel “Mano de hierro” Dolarhyde Ford. Pero Absolution está a punto de experimentar un pánico incompresible cuando la desolada ciudad es atacada por unos maleantes desde el cielo. Ahora, el extraño que rechazaban es su única esperanza de salvación. Este pistolero, se da cuenta de que tiene un secreto que puede darle al pueblo una oportunidad para enfrentarse a los alienígenas. Con la ayuda de la escurridiza viajera Ella, logran reunir a un grupo de antiguos rivales: los ciudadanos, Dolarhyde y sus chicos, los bandidos y los guerreros apache, todos ellos en peligro de ser aniquilados. Unidos contra un enemigo común, se prepararán para un épico enfrentamiento por la supervivencia.

Ficha técnica

Video trailer de la película

Enlaces de descarga

Descargar Cowboys & Aliens (2011) UNRATED Full 1080p Latino
Descargar

dpeliculas

Aportes de DPeliculasHDmega la pass es:dpeliculashdmega.org Aportes de CinemaniaHD la pass es:cinemaniahdd.com

Películas relacionadas

  • Toy Story 3 (2010) Full 1080p Latino

    2010
    Toy Story 3 (2010) Full 1080p Latino

    0.0 1 h 43 min 2010

    Sabiendo que su dueño Andy, que ya no es un niño, se prepara para ir a la universidad, el vaquero Woody,...

    Director: Mark Sanford

    Género: Animación

    Actores: Whoopi Goldberg

  • Toy Story (1995) Full 1080p Latino

    1995
    Toy Story (1995) Full 1080p Latino

    0.0 1 h 21 min 1995

    Los juguetes de Andy, un niño de 6 años, temen que haya llegado su hora y que un nuevo regalo de cumpleaños...

    Director: Roman Figun

    Género: Animación

    Actores: Wallace Shawn

  • Avatar (2009) EXTENDED Full 1080p Latino

    2009
    Avatar (2009) EXTENDED Full 1080p Latino

    0.0 2 h 58 min 2009

    Jake Sully, un ex-marine confinado a una silla de ruedas, es reclutado para viajar al planeta Pandora,...

    Director: James Cameron

    Género: Acción

    Actores: Zoe Saldana

Comentarios 3
  • Jonna - 20 noviembre, 2017

    Descargada Sin problemas, como observación los subs SRT que agregaron en el RAR no calzan, no logré encontrarlos tampoco :/

    • dpelis

      Administrador
      - 20 noviembre, 2017

      🙁 abra que ripear los sub pgs

  • leonidas2016 - 14 noviembre, 2017

    Buenisimos los aportes que estan subiendo, exelente calidad muchas gracias